Ссылка на приватное зеркало нашего сайта всего за 1$. Внимание количество ограничено!!!

2 сезон

iTunes

1 сезон

1

iTunes

iTunes

iTunes

1 сезон

RePack

30

ИГРА 18+

pack

ВАЖНО

!!Акция!!

Alien_RageХит недели

RePack

MK11
pack

Забери бонус

RePack

jed

!!Акция!!

Alien_Rage

RePack

fifa19

RePack

Assassins Creed: Odyssey

RePack

NEED FOR SPEED™ PAYBACK

4 сезон

9 сезон

Бесстыжие 9 сезон

Все сериалы

все сериалы на PB.wtf

RePack

FAR CRY 5
  

Почти семейный детектив / Серии: 1-4 из 4 (Иван Щёголев) [2019, Детектив, SATRip] pb.wtf

Почти семейный детектив через торрент pb.wtf

Раздают: 1 [ 0 KB/s ]
Размер: 2.46 GB | Добавлен: 10 мес. назад | Торрент скачан:14 раз
Скачать  

28-12-2019 08:32 Почти семейный детектив Скачать торрент  

Почти семейный детектив Год выпуска: 2019
Страна: Россия
Жанр: Детектив
Продолжительность: ~ 00:45:00
Субтитры: отсутствуют

Режиссер: Иван Щёголев



В ролях: Марина Коняшкина, Александр Арсентьев, Матвей Семёнов, Эра Зиганшина, Ольга Бурлакова, Александр Подобед, Алексей Шутов, Юлия Кадушкевич, Святослав Астрамович, Дмитрий Гладков (II), Александр Евменов, Олег Вебер

Описание: По одноименному роману Людмилы Мартовой. Автор детективов Ганна даже спустя годы боялась признаться себе, что все еще любит успешного бизнесмена Илью Галицкого. Когда-то между начинающей романисткой и женатым владельцем издательского дома случился роман. Более десяти лет назад, не желая делить любимого мужчину с его женой, Ганна, несмотря на беременность, разорвала отношения с Галицким. Когда же на Илью падает подозрение в убийстве любовника его супруги, Ганна, не раздумывая, решает ему помочь и начинает собственное расследование…

Качество: SATRip
Формат: AVI

Видео: XviD, 720x400, ~ 1700 Кбит/с, 0.235 bit/pixel
Аудио: МР3, 48,0 КГц, 2 ch, 192 Кбит/с
скриншот  скриншот  скриншот  скриншот  скриншот  

Общее
Полное имя : D:\Почти.семейный.детектив.XviD.2019.SATRip.Kinozal-Reliz.7turza\01.Почти.семейный.детектив.Kinozal-Reliz.7turza.avi
Формат : AVI
Формат/Информация : Audio Video Interleave
Размер файла : 629 Мбайт
Продолжительность : 46 м. 17 с.
Общий поток : 1899 Кбит/сек
Название фильма : S01 E01 # from 7turza #
Программа кодирования : Lavf58.29.100

Видео
Идентификатор : 0
Формат : MPEG-4 Visual
Профиль формата : Advanced Simple@L5
Настройки формата : BVOP1
Параметр BVOP формата : 1
Параметр QPel формата : Нет
Параметр GMC формата : Без точки перехода
Параметр матрицы формата : Default (H.263)
Идентификатор кодека : XVID
Идентификатор кодека/Подсказка : XviD
Продолжительность : 46 м. 17 с.
Битрейт : 1694 Кбит/сек
Ширина : 720 пикселей
Высота : 400 пикселей
Соотношение сторон : 1,85:1
Частота кадров : 25,000 кадров/сек
Цветовое пространство : YUV
Субдискретизация насыщенности : 4:2:0
Битовая глубина : 8 бит
Тип развёртки : Прогрессивная
Бит/(Пиксели*Кадры) : 0.235
Размер потока : 561 Мбайт (89%)
Библиотека кодирования : XviD 67

Аудио
Идентификатор : 1
Формат : MPEG Audio
Версия формата : Version 1
Профиль формата : Layer 3
Настройки формата : Joint stereo / MS Stereo
Идентификатор кодека : 55
Идентификатор кодека/Подсказка : MP3
Продолжительность : 46 м. 17 с.
Вид битрейта : Постоянный
Битрейт : 192 Кбит/сек
Каналы : 2 канала
Частота : 48,0 КГц
Размер потока : 63,6 Мбайт (10%)
Выравнивание : Соединение по промежуткам
Продолжительность промежутка : 24 мс. (0,60 видеокадр)
Библиотека кодирования : LAME3.10«=´ÅËð´Dðº

Внимание! Раздача ведётся путём добавления новых серий; при каждом добавлении создаётся новый торрент. Чтобы начать докачку новой серии, пользователям необходимо сделать следующее:
(1) остановить скачивание,
(2) удалить старый торрент у себя из клиента (старые серии удалять не надо),
(3) скачать новый торрент и запустить его у себя в клиенте вместо старого, при этом указать клиенту путь в старую папку куда и должно происходить скачивание новых серий.

Ваш клиент при этом должен произвести хеширование (проверку) старой папки (если не производит сам - помогите ему сделать это), и будет докачивать только те серии которых у вас ещё нет. Старые серии при этом не удаляются, а продолжают раздаваться!

Eсли вы уже удалили старые серии, то предотвратить повторную закачку старых серий можно, отжав галочку в соответствующих местах при запуске нового торрента. По возможности, желательно не удалять старые серии как можно дольше чтобы релизёр не столько продолжал раздавать старые серии, а смог сконцентрироваться на новых.
pb.wtf



Скачать Почти семейный детектив через торрент https://c.radikal.ru/c20/1912/95/2c67d060a0bf.jpg Скачать фильм Почти семейный детектив через торрент бесплантно в хорошем качестве Описание: По одноименному роману Людмилы Мартовой. Автор детективов Ганна даже спустя годы боялась признаться себе, что все еще любит ... 10 10 4
Торрент: Зарегистрирован [2019-12-28 11:25] · скачан: 14 раз
Статус: √ проверено
Размер: 2.46 GB
Как cкачать? Как скачать Почти семейный детектив через торрент | qTorrent

% Раздел Тема Автор DL S | L
Наши сериалы [ 2.38 GB ] Почти / Серии: 1-4 из 4 [2019 WEB-DLRip-AVC] bober100 Скачать
1 | 0
Наши сериалы [ 2.39 GB ] Почти / Серии: 1-4 из 4 [2019 WEB-DLRip] bober100 Скачать
2 | 0
Наши сериалы [ 2.21 GB ] Почти / Серии: 1-4 из 4 [2019 экранизация SATRip-AVC] aleksan55 Скачать
1 | 0

28-11-2019 20:33  

Отключить всю рекламу на сайте

    Дорогой пользователь! Огромная просьба, поблагодарите релизера, оцените раздачу и оставьте свои комментарий, если Вы скачали Почти семейный детектив через торрент бесплатно! Внесите свою лепту в развитие PiratBit!
    Комментировать посты могут только пользователи прошедшие не сложную регистрацию
    Показать сообщения:    

    Почти семейный детектив через торрент
    Скачать бесплатно Почти семейный детектив
    Почти семейный детектив скачать торрент
    Почти семейный детектив смотреть онлайн
    Cкачать фильм Почти семейный детектив бесплатно
    Почти семейный детектив скачать торрент в хорошем качестве
    Почти семейный детектив смотреть онлайн бесплатно в хорошем качестве


    Вы не можете начинать темы
    Вы не можете отвечать на сообщения
    Вы не можете редактировать свои сообщения
    Вы не можете удалять свои сообщения
    Вы не можете голосовать в опросах
    Вы не можете прикреплять файлы к сообщениям
    Вы можете скачивать файлы