Ссылка на приватное зеркало нашего сайта всего за 1$. Внимание количество ограничено!!!

2 сезон

iTunes

1 сезон

1

iTunes

iTunes

iTunes

1 сезон

RePack

30

ИГРА 18+

pack

ВАЖНО

!!Акция!!

Alien_RageХит недели

RePack

MK11
pack

Забери бонус

RePack

jed

!!Акция!!

Alien_Rage

RePack

fifa19

RePack

Assassins Creed: Odyssey

RePack

NEED FOR SPEED™ PAYBACK

4 сезон

9 сезон

Бесстыжие 9 сезон

Все сериалы

все сериалы на PB.wtf

RePack

FAR CRY 5
  

Критический возраст / Серии: 1-2 из 2 (Юрий Лейзеров) [2019, Мелодрама, SATRip] pb.wtf

Критический возраст через торрент pb.wtf

Раздают: 1 [ 0 KB/s ]
Размер: 2.48 GB | Добавлен: 9 мес. назад | Торрент скачан:43 раза
Скачать  

28-12-2019 14:44 Критический возраст Скачать торрент  

Критический возраст
Год выпуска: 2019
Страна: Россия
Жанр: Мелодрама
Продолжительность: ~ 01:34:00
Субтитры: отсутствуют

Режиссер: Юрий Лейзеров



В ролях: Наталия Селиверстова (II), Алёна Козырева, Наталья Щукина, Максим Битюков, Антонина Комиссарова, Константин Соловьёв, Артём Вершинин, Екатерина Шмакова, Дмитрий Мухамадеев, Алексей Фатеев, Виталий Кудрявцев, Станислав Ищенко, Екатерина Горбачева, Сергей Подольный, Андрей Стоянов, Анжелика Пашкова, Евгения Ахременко, Михаил Коновалов, Александр Силаев, Наталья Жернакова, Александр Загоскин (II), Елизавета Водолазская, Ольга Дубровина

Описание: Школьные подруги Алёна, Наташа и Марина всю жизнь вместе. Они привыкли доверять и поддерживать друг друга в горе и в радости. Алёна, скромная и застенчивая учительница литературы, вырастила сына Костю одна. Но он внезапно женился. «Дети» быстро дали понять, что Алёна им мешает и попросили съехать из собственной квартиры. Риелтор Наташа счастлива замужем, но после двадцати лет брака застала мужа в собственной постели с другой женщиной. Марина, бойкая, решительная особа, живёт с собакой в маленькой однокомнатной квартире и никогда не была замужем. Поняв, что не стоит ждать милостей от природы, верные подруги решают, наконец, устроить свою личную жизнь и регистрируются на сайте знакомств…

Качество: SATRip
Формат: AVI

Видео: XviD, 720x400, ~ 1700 Кбит/с, 0.236 bit/pixel
Аудио: МР3, 48,0 КГц, 2 ch, 192 Кбит/с
скриншот  скриншот  скриншот  скриншот  скриншот  

Общее
Полное имя : D:\Критический.возраст.XviD.2019.SATRip.Kinozal-Reliz.7turza\01.Критический.возраст.Kinozal-Reliz.7turza.avi
Формат : AVI
Формат/Информация : Audio Video Interleave
Профиль формата : OpenDML
Размер файла : 1,24 Гбайт
Продолжительность : 1 ч. 33 м.
Общий поток : 1904 Кбит/сек
Название фильма : S01 E01 # from 7turza #
Программа кодирования : Lavf58.29.100

Видео
Идентификатор : 0
Формат : MPEG-4 Visual
Профиль формата : Advanced Simple@L5
Настройки формата : BVOP1
Параметр BVOP формата : 1
Параметр QPel формата : Нет
Параметр GMC формата : Без точки перехода
Параметр матрицы формата : Default (H.263)
Идентификатор кодека : XVID
Идентификатор кодека/Подсказка : XviD
Продолжительность : 1 ч. 33 м.
Битрейт : 1697 Кбит/сек
Ширина : 720 пикселей
Высота : 400 пикселей
Соотношение сторон : 16:9
Частота кадров : 25,000 кадров/сек
Цветовое пространство : YUV
Субдискретизация насыщенности : 4:2:0
Битовая глубина : 8 бит
Тип развёртки : Прогрессивная
Бит/(Пиксели*Кадры) : 0.236
Размер потока : 1,10 Гбайт (89%)
Библиотека кодирования : XviD 67

Аудио
Идентификатор : 1
Формат : MPEG Audio
Версия формата : Version 1
Профиль формата : Layer 3
Настройки формата : Joint stereo / MS Stereo
Идентификатор кодека : 55
Идентификатор кодека/Подсказка : MP3
Продолжительность : 1 ч. 33 м.
Вид битрейта : Постоянный
Битрейт : 192 Кбит/сек
Каналы : 2 канала
Частота : 48,0 КГц
Размер потока : 128 Мбайт (10%)
Выравнивание : Соединение по промежуткам
Продолжительность промежутка : 24 мс. (0,60 видеокадр)
Библиотека кодирования : LAME3.100

pb.wtf



Скачать Критический возраст через торрент https://a.radikal.ru/a20/1912/9e/f1bb30aef586.jpg Скачать фильм Критический возраст через торрент бесплантно в хорошем качестве Описание: Школьные подруги Алёна, Наташа и Марина всю жизнь вместе. Они привыкли доверять и поддерживать друг друга в горе и в радости. ... 8.8 10 4
Торрент: Зарегистрирован [2019-12-28 14:44] · скачан: 43 раз
Статус: √ проверено
Размер: 2.48 GB
Как cкачать? Как скачать Критический возраст через торрент | qTorrent

% Раздел Тема Автор DL S | L
Наши сериалы [ 4.82 GB ] Критический возраст / Серии: 1-2 из 2 [2019 Мело HDTVRip 720p] bober100 Скачать
1 | 0

28-11-2019 20:33  

Отключить всю рекламу на сайте

    Дорогой пользователь! Огромная просьба, поблагодарите релизера, оцените раздачу и оставьте свои комментарий, если Вы скачали Критический возраст через торрент бесплатно! Внесите свою лепту в развитие PiratBit!
    Комментировать посты могут только пользователи прошедшие не сложную регистрацию
    Показать сообщения:    

    Критический возраст через торрент
    Скачать бесплатно Критический возраст
    Критический возраст скачать торрент
    Критический возраст смотреть онлайн
    Cкачать фильм Критический возраст бесплатно
    Критический возраст скачать торрент в хорошем качестве
    Критический возраст смотреть онлайн бесплатно в хорошем качестве


    Вы не можете начинать темы
    Вы не можете отвечать на сообщения
    Вы не можете редактировать свои сообщения
    Вы не можете удалять свои сообщения
    Вы не можете голосовать в опросах
    Вы не можете прикреплять файлы к сообщениям
    Вы можете скачивать файлы