Ссылка на приватное зеркало нашего сайта всего за 1$. Внимание количество ограничено!!!

2 сезон

iTunes

1 сезон

1

iTunes

iTunes

iTunes

1 сезон

RePack

30

ИГРА 18+

pack

ВАЖНО

!!Акция!!

Alien_RageХит недели

RePack

MK11
pack

Забери бонус

RePack

jed

!!Акция!!

Alien_Rage

RePack

fifa19

RePack

Assassins Creed: Odyssey

RePack

NEED FOR SPEED™ PAYBACK

4 сезон

9 сезон

Бесстыжие 9 сезон

Все сериалы

все сериалы на PB.wtf

RePack

FAR CRY 5
  

Почти семейный детектив / Серии: 1-4 из 4 (Иван Щёголев) [2019, Детектив, WEB-DLRip] pb.wtf

Почти семейный детектив через торрент pb.wtf

Размер: 2.39 GB | Добавлен: 9 мес. назад | Торрент скачан:26 раз
Скачать  

28-12-2019 16:57 Почти семейный детектив Скачать торрент  

Почти семейный детектив Год выпуска: 2019
Страна: Россия
Жанр: Детектив
Продолжительность: ~ 00:45:00
Субтитры: отсутствуют

Режиссер: Иван Щёголев



В ролях: Марина Коняшкина, Александр Арсентьев, Матвей Семёнов, Эра Зиганшина, Ольга Бурлакова, Александр Подобед, Алексей Шутов, Юлия Кадушкевич, Святослав Астрамович, Дмитрий Гладков (II), Александр Евменов, Олег Вебер

Описание: По одноименному роману Людмилы Мартовой. Автор детективов Ганна даже спустя годы боялась признаться себе, что все еще любит успешного бизнесмена Илью Галицкого. Когда-то между начинающей романисткой и женатым владельцем издательского дома случился роман. Более десяти лет назад, не желая делить любимого мужчину с его женой, Ганна, несмотря на беременность, разорвала отношения с Галицким. Когда же на Илью падает подозрение в убийстве любовника его супруги, Ганна, не раздумывая, решает ему помочь и начинает собственное расследование…

Качество: WEB-DLRip
Формат: AVI

Видео: XviD, ~ 1600 Кбит/с, 720x400
Аудио: 48.0 kHz, AC3 Dolby Digital, 2/0 (L,R) ch, ~ 192 kbps
скриншот  скриншот  скриншот  скриншот  

General
Complete name : C:06354Почти семейный детектив.2019. WEB-DLRip. Files-x1. Почти семейный детектив.2019. WEB-DLRip. Files-x.avi
Format : AVI
Format/Info : Audio Video Interleave
File size : 601 MiB
Duration : 46mn 39s
Overall bit rate : 1 802 Kbps
Writing application : VirtualDubMod 1.5.10.3 | www.virtualdub-fr.org || (build 2550/release)
Writing library : VirtualDubMod build 2550/release

Video
ID : 0
Format : MPEG-4 Visual
Format profile : Advanced Simple@L5
Format settings, BVOP : 1
Format settings, QPel : No
Format settings, GMC : No warppoints
Format settings, Matrix : Custom
Codec ID : XVID
Codec ID/Hint : XviD
Duration : 46mn 39s
Bit rate : 1 600 Kbps
Width : 720 pixels
Height : 400 pixels
Display aspect ratio : 16:9
Frame rate : 25.000 fps
Color space : YUV
Chroma subsampling : 4:2:0
Bit depth : 8 bits
Scan type : Progressive
Compression mode : Lossy
Bits/(Pixel*Frame) : 0.222
Stream size : 534 MiB (89%)
Writing library : XviD 73

Audio
ID : 1
Format : AC-3
Format/Info : Audio Coding 3
Mode extension : CM (complete main)
Codec ID : 2000
Duration : 46mn 39s
Bit rate mode : Constant
Bit rate : 192 Kbps
Channel(s) : 2 channels
Channel positions : Front: L R
Sampling rate : 48.0 KHz
Bit depth : 16 bits
Compression mode : Lossy
Stream size : 64.1 MiB (11%)
Alignment : Split accross interleaves
Interleave, duration : 40 ms (1.00 video frame)
Interleave, preload duration : 500 ms

Внимание! Раздача ведётся путём добавления новых серий; при каждом добавлении создаётся новый торрент.
Чтобы начать докачку новой серии, пользователям необходимо сделать следующее:
1. Остановить скачивание;
2. Удалить старый торрент у себя из клиента (старые серии удалять не надо);
3. Скачать новый торрент и запустить его у себя в клиенте вместо старого, при этом указать клиенту путь в старую папку куда и должно происходить скачивание новых серий. Ваш клиент при этом должен произвести хеширование (проверку) старой папки и будет докачивать только те серии, которых у вас ещё нет. Старые серии при этом не удаляются, а продолжают раздаваться! Eсли вы уже удалили старые серии, то предотвратить повторную закачку старых серий можно, отжав галочку в соответствующих местах при запуске нового торрента.
pb.wtf



Скачать Почти семейный детектив через торрент https://c.radikal.ru/c20/1912/95/2c67d060a0bf.jpg Скачать фильм Почти семейный детектив через торрент бесплантно в хорошем качестве Описание: По одноименному роману Людмилы Мартовой. Автор детективов Ганна даже спустя годы боялась признаться себе, что все еще любит ... 10 10 3
Торрент: Зарегистрирован [2019-12-28 20:46] · скачан: 26 раз
Статус: √ проверено
Размер: 2.39 GB
Как cкачать? Как скачать Почти семейный детектив через торрент | qTorrent

% Раздел Тема Автор DL S | L
Наши сериалы [ 2.38 GB ] Почти / Серии: 1-4 из 4 [2019 WEB-DLRip-AVC] bober100 Скачать
1 | 0
Наши сериалы [ 2.21 GB ] Почти / Серии: 1-4 из 4 [2019 экранизация SATRip-AVC] aleksan55 Скачать
1 | 0
Наши сериалы [ 2.46 GB ] Почти / Серии: 1-4 из 4 [2019 SATRip] bober100 Скачать
1 | 0

28-11-2019 20:33  

Отключить всю рекламу на сайте

    Дорогой пользователь! Огромная просьба, поблагодарите релизера, оцените раздачу и оставьте свои комментарий, если Вы скачали Почти семейный детектив через торрент бесплатно! Внесите свою лепту в развитие PiratBit!
    Комментировать посты могут только пользователи прошедшие не сложную регистрацию
    Показать сообщения:    

    Почти семейный детектив через торрент
    Скачать бесплатно Почти семейный детектив
    Почти семейный детектив скачать торрент
    Почти семейный детектив смотреть онлайн
    Cкачать фильм Почти семейный детектив бесплатно
    Почти семейный детектив скачать торрент в хорошем качестве
    Почти семейный детектив смотреть онлайн бесплатно в хорошем качестве


    Вы не можете начинать темы
    Вы не можете отвечать на сообщения
    Вы не можете редактировать свои сообщения
    Вы не можете удалять свои сообщения
    Вы не можете голосовать в опросах
    Вы не можете прикреплять файлы к сообщениям
    Вы можете скачивать файлы