Ссылка на приватное зеркало нашего сайта всего за 1$. Внимание количество ограничено!!!

2 сезон

iTunes

1 сезон

1

iTunes

iTunes

iTunes

1 сезон

RePack

30

ИГРА 18+

pack

ВАЖНО

!!Акция!!

Alien_RageХит недели

RePack

MK11
pack

Забери бонус

RePack

jed

!!Акция!!

Alien_Rage

RePack

fifa19

RePack

Assassins Creed: Odyssey

RePack

NEED FOR SPEED™ PAYBACK

4 сезон

9 сезон

Бесстыжие 9 сезон

Все сериалы

все сериалы на PB.wtf

RePack

FAR CRY 5
  

Критический возраст / Серии: 1-2 из 2 (Юрий Лейзеров) [2019, Мелодрама, HDTVRip 720p] pb.wtf

Критический возраст через торрент pb.wtf

Размер: 4.82 GB | Добавлен: 9 мес. назад | Торрент скачан:19 раз
Скачать  

29-12-2019 05:35 Критический возраст Скачать торрент  

Критический возраст
Год выпуска: 2019
Страна: Россия
Жанр: Мелодрама
Продолжительность: ~ 01:34:00
Субтитры: отсутствуют

Режиссер: Юрий Лейзеров



В ролях: Наталия Селиверстова (II), Алёна Козырева, Наталья Щукина, Максим Битюков, Антонина Комиссарова, Константин Соловьёв, Артём Вершинин, Екатерина Шмакова, Дмитрий Мухамадеев, Алексей Фатеев, Виталий Кудрявцев, Станислав Ищенко, Екатерина Горбачева, Сергей Подольный, Андрей Стоянов, Анжелика Пашкова, Евгения Ахременко, Михаил Коновалов, Александр Силаев, Наталья Жернакова, Александр Загоскин (II), Елизавета Водолазская, Ольга Дубровина

Описание: Школьные подруги Алёна, Наташа и Марина всю жизнь вместе. Они привыкли доверять и поддерживать друг друга в горе и в радости. Алёна, скромная и застенчивая учительница литературы, вырастила сына Костю одна. Но он внезапно женился. «Дети» быстро дали понять, что Алёна им мешает и попросили съехать из собственной квартиры. Риелтор Наташа счастлива замужем, но после двадцати лет брака застала мужа в собственной постели с другой женщиной. Марина, бойкая, решительная особа, живёт с собакой в маленькой однокомнатной квартире и никогда не была замужем. Поняв, что не стоит ждать милостей от природы, верные подруги решают, наконец, устроить свою личную жизнь и регистрируются на сайте знакомств…

Качество: HDTVRip 720p
Формат: MKV

Видео: 1280х720(16:9), 25 fps, AVC MPEG-4 (x264), High@L4.1 ~ 3500 kbps , 0.152 bit/pixel
Аудио: 48.0 kHz, AC3 Dolby Digital, 2/0 (L,R) ch, ~ 192 kbps
скриншот  скриншот  скриншот  скриншот  

Общее
Уникальный идентификатор : 202729041296716547714409397177913066822 (0x9884317082BA09B198D5A314CA564546)
Полное имя : C:Kriticheskij.vozrast.2019.HDTVRip.(720p).ExKinoRay\Kriticheskij.vozrast.E01.2019.HDTVRip.(720p).ExKinoRay.mkv
Формат : Matroska
Версия формата : Version 4
Размер файла : 2,40 Гбайт
Продолжительность : 1 ч. 33 м.
Общий поток : 3694 Кбит/сек
Дата кодирования : UTC 2019-12-29 02:02:01
Программа кодирования : mkvmerge v6.9.1 ('Blue Panther') 64bit built on Apr 18 2014 18:23:38
Библиотека кодирования : libebml v1.3.0 + libmatroska v1.4.1

Видео
Идентификатор : 1
Формат : AVC
Формат/Информация : Advanced Video Codec
Профиль формата : High@L4.1
Настройки формата : CABAC / 9 Ref Frames
Параметр CABAC формата : Да
Параметр RefFrames формата : 9 кадров
Идентификатор кодека : V_MPEG4/ISO/AVC
Продолжительность : 1 ч. 33 м.
Битрейт : 3500 Кбит/сек
Ширина : 1280 пикселей
Высота : 720 пикселей
Соотношение сторон : 16:9
Режим частоты кадров : Постоянный
Частота кадров : 25,000 кадров/сек
Цветовое пространство : YUV
Субдискретизация насыщенности : 4:2:0
Битовая глубина : 8 бит
Тип развёртки : Прогрессивная
Бит/(Пиксели*Кадры) : 0.152
Размер потока : 2,23 Гбайт (93%)
Библиотека кодирования : x264 core 146 r2538 121396c
Настройки программы : cabac=1 / ref=9 / deblock=1:-3:-3 / analyse=0x3:0x113 / me=umh / subme=11 / psy=1 / psy_rd=1.00:0.20 / mixed_ref=1 / me_range=32 / chroma_me=1 / trellis=2 / 8x8dct=1 / cqm=0 / deadzone=21,11 / fast_pskip=1 / chroma_qp_offset=-3 / threads=24 / lookahead_threads=10 / sliced_threads=0 / nr=0 / decimate=0 / interlaced=0 / bluray_compat=0 / constrained_intra=0 / bframes=11 / b_pyramid=2 / b_adapt=2 / b_bias=0 / direct=3 / weightb=1 / open_gop=0 / weightp=2 / keyint=250 / keyint_min=25 / scenecut=40 / intra_refresh=0 / rc_lookahead=60 / rc=2pass / mbtree=1 / bitrate=3500 / ratetol=1.0 / qcomp=0.60 / qpmin=0 / qpmax=69 / qpstep=4 / cplxblur=20.0 / qblur=0.5 / vbv_maxrate=14000 / vbv_bufsize=14000 / nal_hrd=none / filler=0 / ip_ratio=1.40 / aq=3:1.40
Default : Нет
Forced : Нет
Цветовой диапазон : Limited
Основные цвета : BT.709
Характеристики трансфера : BT.709
Коэффициенты матрицы : BT.709

Аудио
Идентификатор : 2
Формат : AC-3
Формат/Информация : Audio Coding 3
Коммерческое название : Dolby Digital
Идентификатор кодека : A_AC3
Продолжительность : 1 ч. 33 м.
Вид битрейта : Постоянный
Битрейт : 192 Кбит/сек
Каналы : 2 канала
ChannelLayout : L R
Частота : 48,0 КГц
Частота кадров : 31,250 кадров/сек (1536 SPF)
Метод сжатия : С потерями
Размер потока : 128 Мбайт (5%)
Язык : Russian
ServiceKind/String : Complete Main
Default : Да
Forced : Да
Показать скринш

pb.wtf



Скачать Критический возраст через торрент https://d.radikal.ru/d20/1912/5c/45d9279aa78a.jpg Скачать фильм Критический возраст через торрент бесплантно в хорошем качестве Описание: Школьные подруги Алёна, Наташа и Марина всю жизнь вместе. Они привыкли доверять и поддерживать друг друга в горе и в радости. ... 10 10 3
Торрент: Зарегистрирован [2019-12-29 05:35] · скачан: 19 раз
Статус: √ проверено
Размер: 4.82 GB
Как cкачать? Как скачать Критический возраст через торрент | qTorrent

% Раздел Тема Автор DL S | L
Наши сериалы [ 2.48 GB ] Критический возраст / Серии: 1-2 из 2 [2019 Мело SATRip] bober100 Скачать
1 | 0

28-11-2019 20:33  

Отключить всю рекламу на сайте

    Дорогой пользователь! Огромная просьба, поблагодарите релизера, оцените раздачу и оставьте свои комментарий, если Вы скачали Критический возраст через торрент бесплатно! Внесите свою лепту в развитие PiratBit!
    Комментировать посты могут только пользователи прошедшие не сложную регистрацию
    Показать сообщения:    

    Критический возраст через торрент
    Скачать бесплатно Критический возраст
    Критический возраст скачать торрент
    Критический возраст смотреть онлайн
    Cкачать фильм Критический возраст бесплатно
    Критический возраст скачать торрент в хорошем качестве
    Критический возраст смотреть онлайн бесплатно в хорошем качестве


    Вы не можете начинать темы
    Вы не можете отвечать на сообщения
    Вы не можете редактировать свои сообщения
    Вы не можете удалять свои сообщения
    Вы не можете голосовать в опросах
    Вы не можете прикреплять файлы к сообщениям
    Вы можете скачивать файлы