Ссылка на приватное зеркало всего за 1$. Внимание количество ограничено!!!

iTunes

iTunes

iTunes

1

iTunes

iTunes

iTunes

iTunes

iTunes

30
pack

$ от Little Big

ВАЖНО

!!Акция!!

Alien_RageХит недели

RePack

Resident Evil 21

ИГРА 18+

pack

RePack

jed

!!Акция!!

Alien_Rage

RePack

fifa19

RePack

Assassins Creed: Odyssey

RePack

NEED FOR SPEED™ PAYBACK

4 сезон

9 сезон

Бесстыжие 9 сезон

Все сериалы

все сериалы на PB.wtf

RePack

FAR CRY 5
  

Кингсглейв: Последняя фантазия XV / Kingsglaive: Final Fantasy XV (Такэси Нодзуэ) [2016 г., фантастика, фэнтези, боевик, приключения, драма, BDRip 1080p-HEVC 10bit, Профессиональный (многоголосый)] pb.wtf

Скачать  

29-12-2019 08:12 Кингсглейв: Последняя фантазия XV Скачать торрент  

Кингсглейв: Последняя фантазия XV / Kingsglaive: Final Fantasy XV
Год выпуска: 2016
Страна: Япония, США
Жанр: фантастика, фэнтези, боевик, приключения, драма
Продолжительность: 01:55:32
Перевод: Профессиональный (многоголосый)
Субтитры: нет

Режиссер: Такэси Нодзуэ



В ролях: Аарон Пол, Лина Хиди, Шон Бин, Нейл Ньюбон, Аманда Пиери, Джон Кэмплинг, Адриан Буше, Андреа Тивадар

Описание: Волшебное королевство Люцис является домом для священного Кристалла, но враждебная империя Нифльхейм не остановится ни перед чем, чтобы захватить реликвию. Король Люциса Регис возглавляет элитный отряд солдат, именуемых «Кингсглейв». Вооружившись магией короля, Никс Ульрик и его верные товарищи из Кингсглейв становятся на защиту столицы Инсомния, чтобы остановить неумолимое наступление имперской армии.

Перед превосходящими силами Нифльхейма Королю Регису ничего не остаётся, как согласиться на ультиматум, уступив все свои земли за пределами столицы и женив сына Ноктиса на Леди Лунафрее, бывшей принцессе ныне захваченной земли Тенебра. В разбушевавшейся войне махинации Нифльхейма превращают Инсомнию в грандиозное поле битвы, затягивая Никса в борьбу за выживание всего королевства.

Качество: BDRip 1080p
Формат: MKV
Видео кодек: H.265
Аудио кодек: AC3
Видео: HEVC/H.265, 1920x800, ~4366 Kbps
Аудио#1: AC-3, 6 ch, 640 Kbps Русский - Профессиональный (многоголосый закадровый) [Blu-ray EUR]
Релиз от: ADVOKAT69
скриншот  ,скриншот  ,скриншот  ,скриншот  ,

Общее
Уникальный идентификатор : 225383340171927809777568214208456956049 (0xA98F409BFF06A7CDA56B16AF708C1891)
Полное имя : E:\КИНО HEVC\Последняя фантазия\Кингсглейв Последняя фантазия XV (2016) HEVC 10bit.mkv
Формат : Matroska
Версия формата : Version 4
Размер файла : 4,04 Гбайт
Продолжительность : 1 ч. 55 м.
Общий поток : 5008 Кбит/сек
Дата кодирования : UTC 2019-12-20 14:05:17
Программа кодирования : mkvmerge v9.2.0 ('Photograph') 64bit
Библиотека кодирования : libebml v1.3.3 + libmatroska v1.4.4

Видео
Идентификатор : 1
Формат : HEVC
Формат/Информация : High Efficiency Video Coding
Профиль формата : Main 10@L4@Main
Идентификатор кодека : V_MPEGH/ISO/HEVC
Продолжительность : 1 ч. 55 м.
Битрейт : 4366 Кбит/сек
Ширина : 1920 пикселей
Высота : 800 пикселей
Соотношение сторон : 2,40:1
Режим частоты кадров : Постоянный
Частота кадров : 23,976 (24000/1001) кадра/сек
Цветовое пространство : YUV
Субдискретизация насыщенности : 4:2:0
Битовая глубина : 10 бит
Бит/(Пиксели*Кадры) : 0.119
Размер потока : 3,52 Гбайт (87%)
Библиотека кодирования : x265 3.1+2-g764455672+26:[Windows][MSVC 1916][64 bit] Yuuki 10bit
Настройки программы : rc=crf / crf=18.0000 / qcomp=0.60 / qpstep=4 / stats-write=0 / stats-read=0 / no-lossless / no-cu-lossless / aq-mode=3 / aq-strength=0.80 / cbqpoffs=0 / crqpoffs=0 / ipratio=1.40 / pbratio=1.30 / psy-rd=2.00 / psy-rdoq=1.50 / deblock=-1:-1 / ref=4 / limit-refs=3 / limit-modes / bframes=4 / b-adapt=2 / bframe-bias=0 / b-pyramid / no-b-intra / weightp / no-weightb / min-keyint=23 / max-keyint=250 / rc-lookahead=50 / gop-lookahead=0 / scenecut=40 / radl=0 / max-cu-size=64 / min-cu-size=8 / me=3 / subme=4 / merange=57 / rdoq-level=2 / rd=4 / rdpenalty=0 / dynamic-rd=0.00 / no-rd-refine / ----- / cutree / sao / rect / no-amp / open-gop / wpp / no-pmode / no-pme / no-psnr / no-ssim / nr-intra=0 / nr-inter=0 / no-constrained-intra / strong-intra-smoothing / max-tu-size=32 / tu-inter-depth=1 / tu-intra-depth=1 / limit-tu=0 / qg-size=32 / qpmax=69 / qpmin=0 / ----- / cpuid=1049071 / frame-threads=4 / numa-pools=12,12 / log-level=2 / input-csp=1 / input-res=1920x800 / interlace=0 / level-idc=0 / high-tier=1 / uhd-bd=0 / no-allow-non-conformance / no-repeat-headers / no-aud / no-hrd / info / hash=0 / no-temporal-layers / lookahead-slices=4 / no-splice / no-intra-refresh / no-ssim-rd / signhide / no-tskip / max-merge=3 / temporal-mvp / no-analyze-src-pics / no-sao-non-deblock / no-early-skip / rskip / no-fast-intra / no-tskip-fast / no-splitrd-skip / zone-count=0 / no-strict-cbr / no-rc-grain / no-const-vbv / sar=0 / overscan=0 / videoformat=5 / range=0 / colorprim=2 / transfer=2 / colormatrix=1 / chromaloc=0 / display-window=0cll=0,0 / min-luma=0 / max-luma=1023 / log2-max-poc-lsb=8 / vui-timing-info / vui-hrd-info / slices=1 / no-opt-qp-pps / no-opt-ref-list-length-pps / no-multi-pass-opt-rps / scenecut-bias=0.03 / no-opt-cu-delta-qp / no-aq-motion / no-hdr / no-hdr-opt / no-dhdr10-opt / no-idr-recovery-sei / analysis-reuse-level=5 / scale-factor=0 / refine-intra=0 / refine-inter=0 / refine-mv=0 / refine-ctu-distortion=0 / no-limit-sao / ctu-info=0 / no-lowpass-dct / refine-analysis-type=0 / copy-pic=1 / max-ausize-factor=1.0 / no-dynamic-refine / no-single-sei / no-hevc-aq / no-svt / no-field / qp-adaptation-range=1.00
Default : Да
Forced : Нет
Цветовой диапазон : Limited
Коэффициенты матрицы : BT.709

Аудио
Идентификатор : 2
Формат : AC-3
Формат/Информация : Audio Coding 3
Коммерческое название : Dolby Digital
Идентификатор кодека : A_AC3
Продолжительность : 1 ч. 55 м.
Вид битрейта : Постоянный
Битрейт : 640 Кбит/сек
Каналы : 6 каналов
ChannelLayout : L R C LFE Ls Rs
Частота : 48,0 КГц
Частота кадров : 31,250 кадров/сек (1536 SPF)
Метод сжатия : С потерями
Размер потока : 529 Мбайт (13%)
Заголовок : Профессиональный (многоголосый закадровый) [Blu-ray EUR]
ServiceKind/String : Complete Main
Default : Да
Forced : Нет

Меню
00:00:00.000 : en:Chapter 01
00:12:06.851 : en:Chapter 02
00:15:48.530 : en:Chapter 03
00:20:23.722 : en:Chapter 04
00:25:41.831 : en:Chapter 05
00:32:14.557 : en:Chapter 06
00:39:01.922 : en:Chapter 07
00:43:44.830 : en:Chapter 08
00:50:05.919 : en:Chapter 09
00:54:59.421 : en:Chapter 10
01:02:13.312 : en:Chapter 11
01:12:55.037 : en:Chapter 12
01:21:00.105 : en:Chapter 13
01:26:24.554 : en:Chapter 14
01:37:18.040 : en:Chapter 15
01:41:57.111 : en:Chapter 16

pb.wtf



28-11-2019 20:33  

Отключить всю рекламу на сайте

06-06-2020 11:11 Кингсглейв: Последняя фантазия XV Скачать торрент  

Топик был перенесен из форума Зарубежные Мультфильмы (BDRip 1080p, 720p, Blu-ray, BD-Remux) в форум Для поглощённых раздач


bober100pb.wtf



    Дорогой пользователь! Огромная просьба, поблагодарите релизера, оцените раздачу и оставьте свои комментарий, если Вы скачали Кингсглейв: Последняя фантазия XV через торрент бесплатно! Внесите свою лепту в развитие PiratBit!
    Комментировать посты могут только пользователи прошедшие не сложную регистрацию
    Показать сообщения:    

    Кингсглейв: Последняя фантазия XV через торрент
    Скачать бесплатно Кингсглейв: Последняя фантазия XV
    Кингсглейв: Последняя фантазия XV скачать торрент
    Кингсглейв: Последняя фантазия XV смотреть онлайн
    Cкачать фильм Кингсглейв: Последняя фантазия XV бесплатно
    Кингсглейв: Последняя фантазия XV скачать торрент в хорошем качестве
    Кингсглейв: Последняя фантазия XV смотреть онлайн бесплатно в хорошем качестве


    Вы не можете начинать темы
    Вы не можете отвечать на сообщения
    Вы не можете редактировать свои сообщения
    Вы не можете удалять свои сообщения
    Вы не можете голосовать в опросах
    Вы не можете прикреплять файлы к сообщениям
    Вы можете скачивать файлы