2 сезон

iTunes

WEBRip

1

2 сезон

iTunes

1 сезон

1 сезон

RePack

30

Ultimate

ВАЖНО

ИГРА 18+

pack

RePack

MK11
pack

Легкие деньги

RePack

jed

RePack

fifa19

RePack

RDR2

RePack

NEED FOR SPEED™ PAYBACK

4 сезон

9 сезон

Бесстыжие 9 сезон

Все сериалы

все сериалы на PB.wtf

RePack

FAR CRY 5

Anonymous, доброй ночи, мы не успеваем собрать деньги на оплату серверов за февраль, помогите нам пожалуйста в это трудное время. В качестве благодарности мы отключим Вам всю рекламу на сайте (укажите свой ник в строку Ваше имя)!

×
  
Magnet ссылка

10 минут спустя / Обратный отсчёт / 10 Minutes Gone (Брайан А. Миллер) [2019, боевик, триллер, криминал, детектив, BD Remux 1080p] [Расширенная версия] DUB [iTunes] pb.wtf

10 минут спустя через торрент pb.wtf

Размер: 16.17 GB | Добавлен: 5 мес. 10 д. назад | Торрент скачан:23 раза
Скачать  

29-12-2019 17:13 10 минут спустя Скачать торрент  

10 минут спустя | Обратный отсчёт | 10 Minutes Gone
Год выпуска: 2019
Страна: Канада, США
Студия: Emmett/Furla/Oasis Films (EFO Films), MoviePass Films, Potato Eater Productions See
Жанр: боевик, триллер, криминал, детектив
Продолжительность: 01:36:13
Перевод: Дублированный | iTunes
Субтитры: отсутствуют

Режиссер: Брайан А. Миллер

rating

В ролях: Брюс Уиллис, Майкл Чиклис, Медоу Уильямс, Кайл Шмид, Тексас Бэттл, Лидия Халл, Свен Теммел, Джон Д. Хикман, Серхио Риццуто, Джеффри М. Ривз

Описание: У грабителя-эксперта Фрэнка Салливана никогда не было проблем с работой, пока его брата не убили во время ограбления. После потери сознания Фрэнк просыпается на грязной аллее, не помня, почему ограбление сорвалось и кто застрелил его брата. Для босса Фрэнка, лорда Рекса, все это не имеет значения. Ему нужна добыча, которая была упущена. Теперь Фрэнк должен выяснить, кто из членов команды предал их и найти таинственный портфель, чтобы спасти свою собственную шкуру и отомстить за смерть брата.

Качество: BD Remux 1080p | Расширенная версия
Формат: MKV

Видео: MPEG-4 AVC, 1920x1080, 22.1 Mbit/s, 23.976 fps
Аудио #01: 48 kHz, AC3, 5.1, 384 Kbps | iTunes | RUS |
Аудио #02: 48 kHz, DTS-HD MA, 5.1, 1589 Kbps | Оригинал | ENG |
скриншот  скриншот  скриншот  скриншот  скриншот  

General
Unique ID : 160767135502137852058830707530326644624 (0x78F29FC0AC0DFDACBA6AC56DAB849790)
Complete name : D:Video11110.Minutes.Gone.2019.Extended.BDREMUX.1080p.seleZen.mkv
Format : Matroska
Format version : Version 4
File size : 16.2 GiB
Duration : 1 h 36 min
Overall bit rate mode : Variable
Overall bit rate : 24.1 Mb/s
Movie name : 10 Minutes Gone 2019 from селезень
Encoded date : UTC 2020-09-21 23:39:09
Writing application : mkvmerge v40.0.0 ('Old Town Road + Pony') 64-bit
Writing library : libebml v1.3.9 + libmatroska v1.5.2

Video
ID : 1
Format : AVC
Format/Info : Advanced Video Codec
Format profile : High@L4.1
Format settings : CABAC / 2 Ref Frames
Format settings, CABAC : Yes
Format settings, Reference : 2 frames
Codec ID : V_MPEG4/ISO/AVC
Duration : 1 h 36 min
Bit rate mode : Variable
Bit rate : 22.1 Mb/s
Maximum bit rate : 30.2 Mb/s
Width : 1 920 pixels
Height : 1 080 pixels
Display aspect ratio : 16:9
Frame rate mode : Constant
Frame rate : 23.976 (24000/1001) FPS
Color space : YUV
Chroma subsampling : 4:2:0
Bit depth : 8 bits
Scan type : Progressive
Bits/(Pixel*Frame) : 0.444
Stream size : 14.8 GiB (92%)
Language : German
Default : Yes
Forced : No

Audio #1
ID : 2
Format : AC-3
Format/Info : Audio Coding 3
Commercial name : Dolby Digital
Codec ID : A_AC3
Duration : 1 h 35 min
Bit rate mode : Constant
Bit rate : 384 kb/s
Channel(s) : 6 channels
Channel layout : L R C LFE Ls Rs
Sampling rate : 48.0 kHz
Frame rate : 31.250 FPS (1536 SPF)
Compression mode : Lossy
Stream size : 264 MiB (2%)
Title : iTunes
Language : Russian
Service kind : Complete Main
Default : Yes
Forced : Yes

Audio #2
ID : 3
Format : DTS XLL
Format/Info : Digital Theater Systems
Commercial name : DTS-HD Master Audio
Codec ID : A_DTS
Duration : 1 h 36 min
Bit rate mode : Variable
Bit rate : 1 589 kb/s
Channel(s) : 6 channels
Channel layout : C L R Ls Rs LFE
Sampling rate : 48.0 kHz
Frame rate : 93.750 FPS (512 SPF)
Bit depth : 16 bits
Compression mode : Lossless
Stream size : 1.07 GiB (7%)
Title : Original
Language : English
Default : No
Forced : No

Menu
00:00:00.000 : de:Глава 01
00:05:44.636 : de:Глава 02
00:13:23.261 : de:Глава 03
00:16:46.005 : de:Глава 04
00:26:08.317 : de:Глава 05
00:36:05.747 : de:Глава 06
00:47:07.450 : de:Глава 07
00:54:30.392 : de:Глава 08
00:59:47.417 : de:Глава 09
01:11:01.382 : de:Глава 10
01:22:52.759 : de:Глава 11
01:31:52.507 : de:Глава 12

pb.wtf



Скачать 10 минут спустя через торрент https://i112.fastpic.ru/big/2020/0922/fb/db4799bf4ceab4263382be7bf3ed53fb.jpg Скачать фильм 10 минут спустя через торрент бесплантно в хорошем качестве Описание: У грабителя-эксперта Фрэнка Салливана никогда не было проблем с работой, пока его брата не убили во время ограбления. После ... 10 10 6
Торрент: Зарегистрирован [2020-09-22 02:23] · скачан: 23 раз
Статус: √ проверено
Размер: 16.17 GB
Как cкачать? Как скачать 10 минут спустя через торрент | UTorrent

% Раздел Тема Автор DL S | L
Фильмы 2019-2020 [DVDrip, WEB-DLRip, HDrip] (DUB, MVO) [ 1.42 GB ] 10 минут спустя / Обратный отсчёт / 10 Minutes Gone [2019 BDRip] - Twi7ter Скачать
2 | 0
Фильмы 2019-2020 [DVDrip, WEB-DLRip, HDrip] (DUB, MVO) [ 2.07 GB ] 10 минут спустя / Обратный отсчёт / 10 Minutes Gone [2019 BDRip-AVC] [Расширенная версия] Lithuania Скачать
1 | 0
Фильмы 2019-2020 [DVDrip, WEB-DLRip, HDrip] (DUB, MVO) [ 1.68 GB ] 10 минут спустя / Обратный отсчёт / 10 Minutes Gone [2019 BDRip-AVC] [Расширенная версия] - ExKinoRay Enigma2010 Скачать
5 | 0
Фильмы 2019-2020 [DVDrip, WEB-DLRip, HDrip] (DUB, MVO) [ 745 MB ] 10 минут спустя / Обратный отсчёт / 10 Minutes Gone [2019 HDRip] [Расширенная версия] bober100 Скачать
1 | 0
Фильмы 2019-2020 [DVDrip, WEB-DLRip, HDrip] (DUB, MVO) [ 746 MB ] 10 минут спустя / Обратный отсчёт / 10 Minutes Gone [2019 BDRip-AVC] [Расширенная версия] от MediaBit Lithuania Скачать
1 | 0
Фильмы [HD 720p, 1080p] (Хороший звук DUB, MVO) [ 8.07 GB ] 10 минут спустя / Обратный отсчёт / 10 Minutes Gone [2019 BDRip 1080p] [Расширенная версия] bober100 Скачать
1 | 0
Фильмы [HD 720p, 1080p] (Хороший звук DUB, MVO) [ 4.36 GB ] 10 минут спустя / Обратный отсчёт / 10 Minutes Gone [2019 BDRip 720p] [Расширенная версия] bober100 Скачать
1 | 0


Последний раз редактировалось: bober100 (2020-09-22 02:28), всего редактировалось 2 раз(а)

28-11-2019 20:33  

Отключить всю рекламу на сайте

    Дорогой пользователь! Огромная просьба, поблагодарите релизера, оцените раздачу и оставьте свои комментарий, если Вы скачали 10 минут спустя через торрент бесплатно! Внесите свою лепту в развитие PiratBit!
    Комментировать посты могут только пользователи прошедшие не сложную регистрацию
    Показать сообщения:    

    10 минут спустя через торрент
    Скачать бесплатно 10 минут спустя
    10 минут спустя скачать торрент
    10 минут спустя смотреть онлайн
    Cкачать фильм 10 минут спустя бесплатно
    10 минут спустя скачать торрент в хорошем качестве
    10 минут спустя смотреть онлайн бесплатно в хорошем качестве


    Вы не можете начинать темы
    Вы не можете отвечать на сообщения
    Вы не можете редактировать свои сообщения
    Вы не можете удалять свои сообщения
    Вы не можете голосовать в опросах
    Вы не можете прикреплять файлы к сообщениям
    Вы можете скачивать файлы