2 сезон

iTunes

MVO

1

2 сезон

iTunes

iTunes

1 сезон

RePack

30

Ultimate

ВАЖНО

ИГРА 18+

pack

RePack

MK11
pack

Легкие деньги

RePack

jed

RePack

fifa19

RePack

RDR2

RePack

NEED FOR SPEED™ PAYBACK

4 сезон

9 сезон

Бесстыжие 9 сезон

Все сериалы

все сериалы на PB.wtf

RePack

FAR CRY 5

Anonymous, добрый день, мы не успеваем собрать деньги на оплату серверов за декабрь и январь, помогите нам пожалуйста в это трудное время. В качестве благодарности мы отключим Вам всю рекламу на сайте (укажите свой ник в строку Ваше имя)!

×
  
Magnet ссылка

Затерянные в космосе / Lost in Space / Сезон: 2 / Серии: 1-10 из 10 (Тим Соутэм, Дебора Чоу, Стивен Серджик) [2019, фантастика, драма, детектив, приключения, семейный, UHD WEB-DLRip 2160p] DUB [Пифагор / Netflix] pb.wtf

Затерянные в космосе через торрент pb.wtf

Размер: 66.9 GB | Добавлен: 1 год назад | Торрент скачан:31 раз
Скачать  

30-12-2019 04:57 Затерянные в космосе Скачать торрент  

Затерянные в космосе / Lost in Space Год выпуска: 2019
Страна: США
Жанр: Фантастика
Продолжительность: ~01:00:00
Перевод: Дублированный | Пифагор по заказу Netflix
Субтитры: Русские (Forced, full), английские

Режиссёр: Тим Соутэм, Дебора Чоу, Стивен Серджик

В ролях: Молли Паркер, Тоби Стивенс, Макс Дженкинс, Тейлор Расселл, Мина Сандвол, Игнасио Серричио, Паркер Поузи, Брайан Стил, Амелия Берстин, Раза Джеффри

Описание: 2046 год. Космический корабль теряется в космосе и терпит крушение на планете на расстоянии нескольких световых лет от планируемого места назначения. Его обитатели, семья Робинсонов, вынуждены приспособиться и выжить в новых условиях.

rating

Качество: UHD WEB-DLRip 2160p
Формат: MKV

Видео: 3840x1744 at 23.976 fps, MPEG-H HEVC HDR Video, ~ 19300 kbps avg
Аудио #01: 48 kHz, E-AC3, 5.1, 640 Kbps | Дублированный | RUS |
Аудио #02: 48 kHz, E-AC3+Atmos, 5.1, 768 Kbps | Оригинал | ENG |
скриншот  скриншот  скриншот  скриншот  скриншот  

Общее
Уникальный идентификатор : 111702248798204570855367715283488246798 (0x54091211A2818E6D17ACA3315E088C0E)
Полное имя : C:\Lost.in.Space.2019.S02.WEB-DL.2160p.HDR.seleZen\Lost.in.Space.2019.S02E01.WEB-DL.2160p.HDR.seleZen.mkv
Формат : Matroska
Версия формата : Version 4
Размер файла : 7,35 Гбайт
Продолжительность : 50 м. 5 с.
Общий поток : 21,0 Мбит/сек
Название фильма : Lost in Space S02E01 from селезень
Дата кодирования : UTC 2019-12-30 04:06:00
Программа кодирования : mkvmerge v41.0.0 ('Smarra') 64-bit
Библиотека кодирования : libebml v1.3.9 + libmatroska v1.5.2

Видео
Идентификатор : 1
Формат : HEVC
Формат/Информация : High Efficiency Video Coding
Профиль формата : Main 10@L5.1@High
HDR_Format/String : SMPTE ST 2086, HDR10 compatible
Идентификатор кодека : V_MPEGH/ISO/HEVC
Продолжительность : 50 м. 5 с.
Битрейт : 19,3 Мбит/сек
Ширина : 3840 пикселей
Высота : 1744 пикселя
Соотношение сторон : 2,2:1
Режим частоты кадров : Постоянный
Частота кадров : 23,976 (24000/1001) кадра/сек
Цветовое пространство : YUV
Субдискретизация насыщенности : 4:2:0
Битовая глубина : 10 бит
Бит/(Пиксели*Кадры) : 0.119
Размер потока : 6,71 Гбайт (91%)
Библиотека кодирования : x265 3.2+22-a8a2c4c37267:[Windows][MSVC 1924][64 bit] 10bit
Настройки программы : cpuid=1111039 / frame-threads=4 / numa-pools=28,0 / wpp / no-pmode / no-pme / no-psnr / no-ssim / log-level=2 / input-csp=1 / input-res=3840x1744 / interlace=0 / total-frames=0 / level-idc=51 / high-tier=1 / uhd-bd=0 / ref=5 / no-allow-non-conformance / repeat-headers / annexb / no-aud / no-hrd / info / hash=0 / no-temporal-layers / open-gop / min-keyint=23 / keyint=250 / gop-lookahead=0 / bframes=8 / b-adapt=2 / b-pyramid / bframe-bias=0 / rc-lookahead=40 / lookahead-slices=0 / scenecut=40 / hist-scenecut=0 / radl=0 / no-splice / no-intra-refresh / ctu=64 / min-cu-size=8 / no-rect / no-amp / max-tu-size=32 / tu-inter-depth=3 / tu-intra-depth=3 / limit-tu=0 / rdoq-level=1 / dynamic-rd=0.00 / no-ssim-rd / signhide / no-tskip / nr-intra=0 / nr-inter=0 / no-constrained-intra / strong-intra-smoothing / max-merge=5 / limit-refs=0 / no-limit-modes / me=3 / subme=4 / merange=57 / temporal-mvp / no-frame-dup / no-hme / weightp / weightb / no-analyze-src-pics / deblock=0:0 / no-sao / no-sao-non-deblock / rd=6 / selective-sao=0 / no-early-skip / rskip / no-fast-intra / no-tskip-fast / no-cu-lossless / b-intra / no-splitrd-skip / rdpenalty=0 / psy-rd=4.00 / psy-rdoq=8.00 / no-rd-refine / no-lossless / cbqpoffs=0 / crqpoffs=0 / rc=crf / crf=15.0 / qcomp=0.60 / qpstep=4 / stats-write=0 / stats-read=0 / vbv-maxrate=160000 / vbv-bufsize=160000 / vbv-init=0.9 / crf-max=0.0 / crf-min=0.0 / ipratio=1.40 / pbratio=1.30 / aq-mode=2 / aq-strength=1.00 / cutree / zone-count=0 / no-strict-cbr / qg-size=32 / no-rc-grain / qpmax=69 / qpmin=0 / no-const-vbv / sar=0 / overscan=0 / videoformat=5 / range=0 / colorprim=9 / transfer=16 / colormatrix=9 / chromaloc=0 / display-window=0 / master-display=G(13250,34500)B(7500,3000)R(34000,16000)WP(15635,16450)L(10000000,1) / cll=738,207 / min-luma=0 / max-luma=1023 / log2-max-poc-lsb=8 / vui-timing-info / vui-hrd-info / slices=1 / no-opt-qp-pps / no-opt-ref-list-length-pps / no-multi-pass-opt-rps / scenecut-bias=0.05 / hist-threshold=0.01 / no-opt-cu-delta-qp / no-aq-motion / hdr / hdr-opt / no-dhdr10-opt / no-idr-recovery-sei / analysis-reuse-level=5 / scale-factor=0 / refine-intra=0 / refine-inter=0 / refine-mv=1 / refine-ctu-distortion=0 / no-limit-sao / ctu-info=0 / no-lowpass-dct / refine-analysis-type=0 / copy-pic=1 / max-ausize-factor=1.0 / no-dynamic-refine / no-single-sei / no-hevc-aq / no-svt / no-field / qp-adaptation-range=1.00 / no-scenecut-aware-qp
Язык : English
Default : Да
Forced : Нет
Цветовой диапазон : Limited
Основные цвета : BT.2020
Характеристики трансфера : PQ
Коэффициенты матрицы : BT.2020 non-constant
MasteringDisplay_ColorPrimaries : Display P3
MasteringDisplay_Luminance : min: 0.0001 cd/m2, max: 1000 cd/m2
MaxCLL : 738 cd/m2
MaxFALL : 207 cd/m2

Аудио #1
Идентификатор : 2
Формат : E-AC-3
Формат/Информация : Enhanced AC-3
Коммерческое название : Dolby Digital Plus
Идентификатор кодека : A_EAC3
Продолжительность : 50 м. 5 с.
Вид битрейта : Постоянный
Битрейт : 640 Кбит/сек
Каналы : 6 каналов
ChannelLayout : L R C LFE Ls Rs
Частота : 48,0 КГц
Частота кадров : 31,250 кадров/сек (1536 SPF)
Метод сжатия : С потерями
Размер потока : 229 Мбайт (3%)
Заголовок : Dubbing
Язык : Russian
ServiceKind/String : Complete Main
Default : Да
Forced : Да

Аудио #2
Идентификатор : 3
Формат : E-AC-3 JOC
Формат/Информация : Enhanced AC-3 with Joint Object Coding
Коммерческое название : Dolby Digital Plus with Dolby Atmos
Идентификатор кодека : A_EAC3
Продолжительность : 50 м. 5 с.
Вид битрейта : Постоянный
Битрейт : 768 Кбит/сек
Каналы : 6 каналов
ChannelLayout : L R C LFE Ls Rs
Частота : 48,0 КГц
Частота кадров : 31,250 кадров/сек (1536 SPF)
Метод сжатия : С потерями
Размер потока : 275 Мбайт (4%)
Заголовок : English
Язык : English
ServiceKind/String : Complete Main
Default : Нет
Forced : Нет
ComplexityIndex : 16
NumberOfDynamicObjects : 15
BedChannelCount/String : 1 канал
BedChannelConfiguration : LFE

Текст #1
Идентификатор : 4
Формат : UTF-8
Идентификатор кодека : S_TEXT/UTF8
Идентификатор кодека/Информация : UTF-8 Plain Text
Заголовок : Forced
Язык : Russian
Default : Да
Forced : Да

Текст #2
Идентификатор : 5
Формат : UTF-8
Идентификатор кодека : S_TEXT/UTF8
Идентификатор кодека/Информация : UTF-8 Plain Text
Заголовок : Full
Язык : Russian
Default : Нет
Forced : Нет

Текст #3
Идентификатор : 6
Формат : UTF-8
Идентификатор кодека : S_TEXT/UTF8
Идентификатор кодека/Информация : UTF-8 Plain Text
Заголовок : SDH
Язык : English
Default : Нет
Forced : Нет

pb.wtf



Скачать Затерянные в космосе через торрент https://funkyimg.com/i/2YKMV.jpg Скачать фильм Затерянные в космосе через торрент бесплантно в хорошем качестве Описание: 2046 год. Космический корабль теряется в космосе и терпит крушение на планете на расстоянии нескольких световых лет от ... 10 10 4
Info! Золотая раздача, скачанное не засчитывается.
Торрент: Зарегистрирован [2019-12-30 04:57] · скачан: 31 раз
Статус: √ проверено
Размер: 66.9 GB
Как cкачать? Как скачать Затерянные в космосе через торрент | UTorrent

% Раздел Тема Автор DL S | L
Зарубежные сериалы [ 7.4 GB ] Затерянные в космосе / Lost in Space / Сезон: 2 / Серии: 1-10 из 10 [2019 WEB-DLRip] MVO [TVShows] bober100 Скачать
3 | 0
Зарубежные сериалы [ 57.49 GB ] Затерянные в космосе / Lost in Space / Сезон: 2 / Серии: 1-10 из 10 [2019 WEB-DL 1080p] MVO [TVShows] bober100 Скачать
1 | 0
Зарубежные сериалы [ 28.62 GB ] Затерянные в космосе / Lost in Space / Сезон: 2 / Серии: 1-10 из 10 [2019 WEBRip 720p] + [MVO] killermax2013 Скачать
1 | 0
Зарубежные сериалы [ 27.74 GB ] Затерянные в космосе / Lost in Space / Сезон: 2 / Серии: 1-10 из 10 [2019 WEB-DL 720p] MVO [LostFilm] bober100 Скачать
1 | 0
Зарубежные сериалы [ 6.33 GB ] Затерянные в космосе / Lost in Space / Сезон: 2 / Серии: 1-10 из 10 [2019 WEB-DLRip] MVO [LostFilm] bober100 Скачать
1 | 0
Зарубежные сериалы [ 16.79 GB ] Затерянные в космосе / Lost in Space / Сезон: 2 / Серии: 1-10 из 10 [2019 WEB-DL 1080p] DUB [Пифагор / Netflix] bober100 Скачать
4 | 0
Зарубежные сериалы [ 6.33 GB ] Затерянные в космосе / Lost in Space / Сезон: 2 / Серии: 1-10 из 10 [2019 WEB-DLRip] DUB [Пифагор / Netflix] bober100 Скачать
1 | 0

28-11-2019 20:33  

Отключить всю рекламу на сайте

    Дорогой пользователь! Огромная просьба, поблагодарите релизера, оцените раздачу и оставьте свои комментарий, если Вы скачали Затерянные в космосе через торрент бесплатно! Внесите свою лепту в развитие PiratBit!
    Комментировать посты могут только пользователи прошедшие не сложную регистрацию
    Показать сообщения:    

    Затерянные в космосе через торрент
    Скачать бесплатно Затерянные в космосе
    Затерянные в космосе скачать торрент
    Затерянные в космосе смотреть онлайн
    Cкачать фильм Затерянные в космосе бесплатно
    Затерянные в космосе скачать торрент в хорошем качестве
    Затерянные в космосе смотреть онлайн бесплатно в хорошем качестве


    Вы не можете начинать темы
    Вы не можете отвечать на сообщения
    Вы не можете редактировать свои сообщения
    Вы не можете удалять свои сообщения
    Вы не можете голосовать в опросах
    Вы не можете прикреплять файлы к сообщениям
    Вы можете скачивать файлы