2 сезон

iTunes

MVO

1

2 сезон

iTunes

iTunes

1 сезон

RePack

30

Новинка

ВАЖНО

ИГРА 18+

pack

RePack

MK11
pack

Легкие деньги

RePack

jed

RePack

fifa19

RePack

RDR2

RePack

NEED FOR SPEED™ PAYBACK

4 сезон

9 сезон

Бесстыжие 9 сезон

Все сериалы

все сериалы на PB.wtf

RePack

FAR CRY 5

Anonymous, добрый вечер, мы не успеваем собрать деньги на оплату серверов за декабрь и январь, помогите нам пожалуйста в это трудное время. В качестве благодарности мы отключим Вам всю рекламу на сайте (укажите свой ник в строку Ваше имя)!

×
  
Magnet ссылка

Особь / Species (Роджер Дональдсон) [1995 г., Ужасы, фантастика, боевик, триллер, BDRip 720p / 60 FPS, Дубляж] от R.G. HD-Films pb.wtf

Особь через торрент pb.wtf

Качают: 1 [ 0 KB/s ]
Размер: 3.31 GB | Добавлен: 1 год назад | Торрент скачан:31 раз
Скачать  

30-12-2019 18:01 Особь Скачать торрент  

Особь / Species
Год выпуска: 1995
Страна: США
Жанр: Ужасы, фантастика, боевик, триллер
Продолжительность: 01:48:25
Перевод: Дубляж
Субтитры: Русские

Режиссер: Роджер Дональдсон

Бюджет: $35 000 000
Премьера в мире: 7 июля 1995,

rating

В ролях: Наташа Хенстридж, Бен Кингсли, Майкл Мэдсен, Альфред Молина, Форест Уитакер, Марг Хельгенбергер, Мишель Уильямс, Джордан Лунд, Дон Фишер, Скотт МакКенна, Вирджиния Моррис, Джэйн Люк, Дэвид Дженсен, Эстер Скотт, Ширли Престиа

Описание: В сверхсекретном научном центре получили из космоса формулу ДНК, которая была воспроизведена и скрещена с женской. В результате получился ребенок, девочка, которая росла не по дням, а по часам. И даже не по часам, а по минутам. Напуганные результатами эксперимента, ученые решили уничтожить подопытное существо, но оно сбежало, разбив пуленепробиваемое стекло. А существо из девушки уже превратилось в женщину с очень сексапильной внешностью и жаждало размножаться, к чему и приступило. Но внутри у нее таилось ужасающее чудовище, котоpoe убивало после спаривания самцов. Для ее поимки была создана специальная группа экспертов, которая пошла по кровавому следу одержимой материнским инстинктом самки из космоса…

Качество: BDRip 720p / 60 FPS
Формат: MKV
Видео кодек: H.264
Аудио кодек: AC3
Видео: x264, 1280 x 544 (2,35:1), 3983 kbps, 60,000 fps, ( 0.095 bpp)
Аудио#1: Русский, AC-3, 48.0 KHz, 6 ch, 384 Kbps ( SDI Sun Studio Russia )


скриншот   скриншот   скриншот   скриншот   скриншот  Автор рипа: slaventi-69
x264 [info]: profile High, level 4.1
x264 [info]: frame I:2156 Avg QP:16.25 size: 69509 PSNR Mean Y:48.08 U:51.70 V:53.58 Avg:49.10 Global:48.83
x264 [info]: frame P:89052 Avg QP:19.24 size: 18590 PSNR Mean Y:45.63 U:50.00 V:51.52 Avg:46.73 Global:46.44
x264 [info]: frame B:298728 Avg QP:22.03 size: 4788 PSNR Mean Y:44.60 U:49.84 V:51.39 Avg:45.79 Global:45.38
x264 [info]: consecutive B-frames: 1.9% 2.3% 7.2% 11.9% 66.2% 10.5%

Общее
Уникальный идентификатор : 222353851893920098545087510769585866644 (0xA747CB4E26920518823585980453C794)
Полное имя : F:\Species.(1995).BDRip.720p.(60 Fps).mkv
Формат : Matroska
Версия формата : Version 4
Размер файла : 3,31 Гбайт
Продолжительность : 1 ч. 48 м.
Общий поток : 4371 Кбит/сек
Название фильма : Особь / Species (1995) BDRip 720p (60 Fps)
Дата кодирования : UTC 2019-12-29 16:19:51
Программа кодирования : mkvmerge v12.0.0 ('Trust / Lust') 64bit
Библиотека кодирования : libebml v1.3.4 + libmatroska v1.4.5

Видео
Идентификатор : 1
Формат : AVC
Формат/Информация : Advanced Video Codec
Профиль формата : High@L4.1
Настройки формата : CABAC / 8 Ref Frames
Параметр CABAC формата : Да
Параметр RefFrames формата : 8 кадров
Идентификатор кодека : V_MPEG4/ISO/AVC
Продолжительность : 1 ч. 48 м.
Битрейт : 3983 Кбит/сек
Ширина : 1280 пикселей
Высота : 544 пикселя
Соотношение сторон : 2,35:1
Режим частоты кадров : Постоянный
Частота кадров : 60,000 кадров/сек
Цветовое пространство : YUV
Субдискретизация насыщенности : 4:2:0
Битовая глубина : 8 бит
Тип развёртки : Прогрессивная
Бит/(Пиксели*Кадры) : 0.095
Размер потока : 3,01 Гбайт (91%)
Заголовок : slaventi-69 ( R.G. HD-Films | 60 fps )
Библиотека кодирования : x264 core 130 r2273 b3065e6
Настройки программы : cabac=1 / ref=8 / deblock=1:-1:-1 / analyse=0x3:0x113 / me=umh / subme=9 / psy=1 / psy_rd=1.00:0.00 / mixed_ref=1 / me_range=24 / chroma_me=1 / trellis=2 / 8x8dct=1 / cqm=0 / deadzone=21,11 / fast_pskip=1 / chroma_qp_offset=-2 / threads=8 / lookahead_threads=2 / sliced_threads=0 / nr=0 / decimate=1 / interlaced=0 / bluray_compat=0 / constrained_intra=0 / bframes=5 / b_pyramid=2 / b_adapt=2 / b_bias=0 / direct=2 / weightb=1 / open_gop=0 / weightp=2 / keyint=250 / keyint_min=25 / scenecut=40 / intra_refresh=0 / rc_lookahead=40 / rc=crf / mbtree=1 / crf=17.0 / qcomp=0.60 / qpmin=0 / qpmax=69 / qpstep=4 / ip_ratio=1.40 / aq=1:1.00
Язык : English
Default : Да
Forced : Нет

Аудио
Идентификатор : 2
Формат : AC-3
Формат/Информация : Audio Coding 3
Коммерческое название : Dolby Digital
Идентификатор кодека : A_AC3
Продолжительность : 1 ч. 48 м.
Вид битрейта : Постоянный
Битрейт : 384 Кбит/сек
Каналы : 6 каналов
Channel layout : L R C LFE Ls Rs
Частота : 48,0 КГц
Частота кадров : 31,250 кадров/сек (1536 SPF)
Битовая глубина : 16 бит
Метод сжатия : С потерями
Размер потока : 297 Мбайт (9%)
Заголовок : Dub ( SDI Sun Studio Russia )
Язык : Russian
ServiceKind/String : Complete Main
Default : Да
Forced : Нет

Текст
Идентификатор : 3
Формат : UTF-8
Идентификатор кодека : S_TEXT/UTF8
Идентификатор кодека/Информация : UTF-8 Plain Text
Продолжительность : 1 ч. 37 м.
Битрейт : 71 бит/сек
ElementCount : 963
Размер потока : 51,1 Кбайт (0%)
Язык : Russian
Default : Нет
Forced : Нет

Просьба к переливающим на другие сайты, в оформлении указывайте пожалуйста авторство группы R.G. HD-Films pb.wtf



Скачать Особь через торрент https://b.radikal.ru/b12/1909/ed/5074da99f6cf.jpg Скачать фильм Особь через торрент бесплантно в хорошем качестве Описание: В сверхсекретном научном центре получили из космоса формулу ДНК, которая была воспроизведена и скрещена с женской. В результате ... 10 10 5
Торрент: Зарегистрирован [2019-12-30 18:01] · скачан: 31 раз
Статус: √ проверено
Размер: 3.31 GB
Как cкачать? Как скачать Особь через торрент | UTorrent

% Раздел Тема Автор DL S | L
Фильмы (HD 720p, 1080p) (48-60 fps) [ 2.81 GB ] Особь 2 / Species II [1998 BDRip 720p / 60 FPS ] от R.G. HD-Films slaventi-69 Скачать
1 | 0

28-11-2019 20:33  

Отключить всю рекламу на сайте

    Дорогой пользователь! Огромная просьба, поблагодарите релизера, оцените раздачу и оставьте свои комментарий, если Вы скачали Особь через торрент бесплатно! Внесите свою лепту в развитие PiratBit!
    Комментировать посты могут только пользователи прошедшие не сложную регистрацию
    Показать сообщения:    

    Особь через торрент
    Скачать бесплатно Особь
    Особь скачать торрент
    Особь смотреть онлайн
    Cкачать фильм Особь бесплатно
    Особь скачать торрент в хорошем качестве
    Особь смотреть онлайн бесплатно в хорошем качестве


    Вы не можете начинать темы
    Вы не можете отвечать на сообщения
    Вы не можете редактировать свои сообщения
    Вы не можете удалять свои сообщения
    Вы не можете голосовать в опросах
    Вы не можете прикреплять файлы к сообщениям
    Вы можете скачивать файлы