Ссылка на приватное зеркало нашего сайта всего за 1$. Внимание количество ограничено!!!

2 сезон

iTunes

1 сезон

1

2 сезон

2 сезон

iTunes

1 сезон

RePack

30

Новинка

ВАЖНО

ИГРА 18+

pack

RePack

MK11
pack

Забери бонус

RePack

jed

!!Акция!!

Alien_Rage

RePack

fifa19

RePack

Assassins Creed: Odyssey

RePack

NEED FOR SPEED™ PAYBACK

4 сезон

9 сезон

Бесстыжие 9 сезон

Все сериалы

все сериалы на PB.wtf

RePack

FAR CRY 5
  

От колыбели до могилы / Cradle 2 the Grave (Анджей Бартковяк) [2003, боевик, триллер, драма, криминал, WEB-DL 1080p] [Open Matte] [MVO] + 2x [DVO] + 2x [AVO] + [VO] pb.wtf

От колыбели до могилы через торрент pb.wtf

Размер: 14.8 GB | Добавлен: 10 мес. назад | Торрент скачан:52 раза
Скачать  

30-12-2019 20:02 От колыбели до могилы Скачать торрент  

От колыбели до могилы / Cradle 2 the Grave«Mortal enemies make dangerous friends»
Год выпуска: 2003
Страна: США
Жанр: боевик, триллер, драма, криминал
Продолжительность: 01:41:19
Перевод: Профессиональный (многоголосый закадровый) - R5
Перевод 2: Профессиональный (двухголосый закадровый) - LDV
Перевод 3: Профессиональный (двухголосый закадровый) - DDV
Перевод 4: Авторский (одноголосый закадровый) - А. Гаврилов
Перевод 5: Авторский (одноголосый закадровый) - Ю. Живов
Перевод 6: Одноголосый закадровый - Е. Гавеский
Субтитры: Russian, English (SDH, Amazon)
Режиссер: Анджей Бартковяк / Andrzej Bartkowiak
В ролях: Джет Ли, DMX, Энтони Андерсон, Келли Ху, Том Арнольд, Марк Дакаскос, Гэбриэл Юнион, Майкл Джейс, Драг-Он, Пейдж Херд
Описание:
Профессиональный грабитель и секретный агент объединяют свои усилия в борьбе против банды свирепых гангстеров под руководством жестокого мафиози… В центре сюжета — бесценные сокровища — черные алмазы из Тайваня. Сначала их похищает банда чернокожего вора Тони Фейта. Но драгоценности приносят ему лишь неприятности: хозяин камешков, торговец оружием Линг, похищает дочь Фейта и требует вернуть бриллианты.
Только возвращать уже нечего: камни снова украдены, на этот раз бандой местного мафиози Джамба Чемберса. Чтобы вернуть дочь и уцелеть самому, Фейт вынужден объединиться с агентом тайваньской разведки Су, который тоже идет по следу бриллиантов. Дело в том, что черные алмазы — совсем не ювелирные драгоценности…



Тип релиза: WEB-DL 1080p
Контейнер: MKV
Видео: MPEG4 Video (H264) 1920x1080 23.976fps ~14300Kbps
Аудио#1: Russian: 48 kHz, AC3, 3/2 (L,C,R,l,r) + LFE ch, ~384.00 kbps avg |Профессиональный, многоголосый - R5|
Аудио#2: Russian: 48 kHz, AC3, 3/2 (L,C,R,l,r) + LFE ch, ~448.00 kbps avg |Профессиональный, двухголосый - LDV|
Аудио#3: Russian: 48 kHz, AC3, 2.0 (L,R) ch, ~192.00 kbps avg |Профессиональный, двухголосый - DDV|
Аудио#4: Russian: 48 kHz, AC3, 3/2 (L,C,R,l,r) + LFE ch, ~448.00 kbps avg |Авторский, одноголосый - А. Гаврилов|
Аудио#5: Russian: 48 kHz, DTS, 3/2 (L,C,R,l,r) + LFE ch, ~1509.00 kbps avg |Авторский, одноголосый - Ю. Живов|
Аудио#6: Russian: 48 kHz, DTS, 3/2 (L,C,R,l,r) + LFE ch, ~1509.00 kbps avg |Одноголосый - Е. Гаевский|
Аудио#7: English: 48 kHz, DTS, 3/2 (L,C,R,l,r) + LFE ch, ~1509.00 kbps avg |Оригинал - BluRay|
Аудио#8: English: 48 kHz, E-AC3, 3/2 (L,C,R,l,r) + LFE ch, ~640.00 kbps avg |Оригинал - Amazon|
Субтитры: SoftSub (SRT)

Код:

General
Unique ID                                : 183952196941963825703676031246452314899 (0x8A63E7898D70D253B45C2397C616D313)
Complete name                            : D:\Видео\HD\Cradle.2.the.Grave.2003.Open.Matte.1080p.WEB-DL.6xRus.Eng.mkv
Format                                   : Matroska
Format version                           : Version 4 / Version 2
File size                                : 14.8 GiB
Duration                                 : 1 h 41 min
Overall bit rate mode                    : Variable
Overall bit rate                         : 20.9 Mb/s
Movie name                               : Cradle.2.the.Grave.2003.Open.Matte.1080p.WEB-DL.6xRus.Eng-spartanec163
Encoded date                             : UTC 2018-04-20 17:43:18
Writing application                      : mkvmerge v8.3.0 ('Over the Horizon') 64bit
Writing library                          : libebml v1.3.1 + libmatroska v1.4.2

Video
ID                                       : 1
Format                                   : AVC
Format/Info                              : Advanced Video Codec
Format profile                           : High@L4
Format settings                          : CABAC / 4 Ref Frames
Format settings, CABAC                   : Yes
Format settings, RefFrames               : 4 frames
Codec ID                                 : V_MPEG4/ISO/AVC
Duration                                 : 1 h 41 min
Bit rate mode                            : Variable
Bit rate                                 : 14.3 Mb/s
Maximum bit rate                         : 15.0 Mb/s
Width                                    : 1 920 pixels
Height                                   : 1 080 pixels
Display aspect ratio                     : 16:9
Frame rate mode                          : Constant
Frame rate                               : 23.976 (24000/1001) FPS
Color space                              : YUV
Chroma subsampling                       : 4:2:0
Bit depth                                : 8 bits
Scan type                                : Progressive
Bits/(Pixel*Frame)                       : 0.287
Stream size                              : 10.1 GiB (68%)
Title                                    : WEB-DL 1080p (Amazon)
Language                                 : English
Default                                  : Yes
Forced                                   : No
Color range                              : Limited
Color primaries                          : BT.709
Transfer characteristics                 : BT.709
Matrix coefficients                      : BT.709

Audio #1
ID                                       : 2
Format                                   : AC-3
Format/Info                              : Audio Coding 3
Codec ID                                 : A_AC3
Duration                                 : 1 h 41 min
Bit rate mode                            : Constant
Bit rate                                 : 384 kb/s
Channel(s)                               : 6 channels
Channel positions                        : Front: L C R, Side: L R, LFE
Sampling rate                            : 48.0 kHz
Frame rate                               : 31.250 FPS (1536 SPF)
Bit depth                                : 16 bits
Compression mode                         : Lossy
Stream size                              : 278 MiB (2%)
Title                                    : AC3 5.1 384Kbps (Профессиональный, многоголосый - R5)
Language                                 : Russian
Service kind                             : Complete Main
Default                                  : Yes
Forced                                   : No

Audio #2
ID                                       : 3
Format                                   : AC-3
Format/Info                              : Audio Coding 3
Codec ID                                 : A_AC3
Duration                                 : 1 h 41 min
Bit rate mode                            : Constant
Bit rate                                 : 448 kb/s
Channel(s)                               : 6 channels
Channel positions                        : Front: L C R, Side: L R, LFE
Sampling rate                            : 48.0 kHz
Frame rate                               : 31.250 FPS (1536 SPF)
Bit depth                                : 16 bits
Compression mode                         : Lossy
Stream size                              : 325 MiB (2%)
Title                                    : AC3 5.1 448Kbps (Профессиональный, двухголосый - LDV)
Language                                 : Russian
Service kind                             : Complete Main
Default                                  : No
Forced                                   : No

Audio #3
ID                                       : 4
Format                                   : AC-3
Format/Info                              : Audio Coding 3
Codec ID                                 : A_AC3
Duration                                 : 1 h 41 min
Bit rate mode                            : Constant
Bit rate                                 : 192 kb/s
Channel(s)                               : 2 channels
Channel positions                        : Front: L R
Sampling rate                            : 48.0 kHz
Frame rate                               : 31.250 FPS (1536 SPF)
Bit depth                                : 16 bits
Compression mode                         : Lossy
Stream size                              : 139 MiB (1%)
Title                                    : AC3 2.0 192Kbps (Профессиональный, двухголосый - DDV)
Language                                 : Russian
Service kind                             : Complete Main
Default                                  : No
Forced                                   : No

Audio #4
ID                                       : 5
Format                                   : AC-3
Format/Info                              : Audio Coding 3
Codec ID                                 : A_AC3
Duration                                 : 1 h 41 min
Bit rate mode                            : Constant
Bit rate                                 : 448 kb/s
Channel(s)                               : 6 channels
Channel positions                        : Front: L C R, Side: L R, LFE
Sampling rate                            : 48.0 kHz
Frame rate                               : 31.250 FPS (1536 SPF)
Bit depth                                : 16 bits
Compression mode                         : Lossy
Stream size                              : 325 MiB (2%)
Title                                    : AC3 5.1 448Kbps (Авторский, одноголосый - А. Гаврилов)
Language                                 : Russian
Service kind                             : Complete Main
Default                                  : No
Forced                                   : No

Audio #5
ID                                       : 6
Format                                   : DTS
Format/Info                              : Digital Theater Systems
Codec ID                                 : A_DTS
Duration                                 : 1 h 41 min
Bit rate mode                            : Constant
Bit rate                                 : 1 509 kb/s
Channel(s)                               : 6 channels
Channel positions                        : Front: L C R, Side: L R, LFE
Sampling rate                            : 48.0 kHz
Frame rate                               : 93.750 FPS (512 SPF)
Bit depth                                : 24 bits
Compression mode                         : Lossy
Stream size                              : 1.07 GiB (7%)
Title                                    : DTS 5.1 1509Kbps (Авторский, одноголосый - Ю. Живов)
Language                                 : Russian
Default                                  : No
Forced                                   : No

Audio #6
ID                                       : 7
Format                                   : DTS
Format/Info                              : Digital Theater Systems
Codec ID                                 : A_DTS
Duration                                 : 1 h 41 min
Bit rate mode                            : Constant
Bit rate                                 : 1 509 kb/s
Channel(s)                               : 6 channels
Channel positions                        : Front: L C R, Side: L R, LFE
Sampling rate                            : 48.0 kHz
Frame rate                               : 93.750 FPS (512 SPF)
Bit depth                                : 24 bits
Compression mode                         : Lossy
Stream size                              : 1.07 GiB (7%)
Title                                    : DTS 5.1 1509Kbps (Одноголосый - Е. Гаевский)
Language                                 : Russian
Default                                  : No
Forced                                   : No

Audio #7
ID                                       : 8
Format                                   : DTS
Format/Info                              : Digital Theater Systems
Codec ID                                 : A_DTS
Duration                                 : 1 h 41 min
Bit rate mode                            : Constant
Bit rate                                 : 1 509 kb/s
Channel(s)                               : 6 channels
Channel positions                        : Front: L C R, Side: L R, LFE
Sampling rate                            : 48.0 kHz
Frame rate                               : 93.750 FPS (512 SPF)
Bit depth                                : 24 bits
Compression mode                         : Lossy
Stream size                              : 1.07 GiB (7%)
Title                                    : DTS 5.1 1509Kbps (Оригинал - BluRay)
Language                                 : English
Default                                  : No
Forced                                   : No

Audio #8
ID                                       : 9
Format                                   : E-AC-3
Format/Info                              : Enhanced Audio Coding 3
Codec ID                                 : A_EAC3
Duration                                 : 1 h 41 min
Bit rate mode                            : Constant
Bit rate                                 : 640 kb/s
Channel(s)                               : 6 channels
Channel positions                        : Front: L C R, Side: L R, LFE
Sampling rate                            : 48.0 kHz
Frame rate                               : 187.500 FPS (256 SPF)
Compression mode                         : Lossy
Stream size                              : 464 MiB (3%)
Title                                    : E-AC3 5.1 640Kbps (Оригинал - Amazon)
Language                                 : English
Service kind                             : Complete Main
Default                                  : No
Forced                                   : No

Text #1
ID                                       : 10
Format                                   : UTF-8
Codec ID                                 : S_TEXT/UTF8
Codec ID/Info                            : UTF-8 Plain Text
Duration                                 : 1 h 40 min
Bit rate                                 : 56 b/s
Count of elements                        : 974
Stream size                              : 41.3 KiB (0%)
Language                                 : Russian
Default                                  : No
Forced                                   : No

Text #2
ID                                       : 11
Format                                   : UTF-8
Codec ID                                 : S_TEXT/UTF8
Codec ID/Info                            : UTF-8 Plain Text
Duration                                 : 1 h 40 min
Bit rate                                 : 63 b/s
Count of elements                        : 1607
Stream size                              : 46.7 KiB (0%)
Title                                    : SDH, Amazon
Language                                 : English
Default                                  : No
Forced                                   : No


скриншот  скриншот  скриншот  

pb.wtf



Скачать От колыбели до могилы через торрент http://i5.imageban.ru/out/2018/04/20/be568de74cb1fbd12f1a1b0ada8170e7.jpg Скачать фильм От колыбели до могилы через торрент бесплантно в хорошем качестве Описание:Профессиональный грабитель и секретный агент объединяют свои усилия в борьбе против банды свирепых гангстеров под руководством ... 10 10 6
Info! Золотая раздача, скачанное не засчитывается.
Торрент: Зарегистрирован [2019-12-30 20:02] · скачан: 52 раз
Статус: √ проверено
Размер: 14.8 GB
Как cкачать? Как скачать От колыбели до могилы через торрент | qTorrent

% Раздел Тема Автор DL S | L
Фильмы (HD 720p, 1080p) (48-60 fps) [ 3.58 GB ] От колыбели до могилы / Cradle 2 the Grave [2003 BDRip 720p] 60fps от R.G. HD-Films slaventi-69 Скачать
2 | 0
Фильмы с авторской озвучкой [ 1.82 GB ] От колыбели до могилы / Cradle 2 the Grave [2003 BDRip Авторский одноголосный] killermax2013 Скачать
1 | 0
Фильмы 2001-2005 [ 1.46 GB ] От колыбели до могилы / Cradle 2 the Grave [2003 BDRip MVO + MVO + Оригинал] bogyn Скачать
1 | 0
Фильмы 2001-2005 [ 293 MB ] От колыбели до могилы / Cradle 2 the Grave [2003 DVDRipМР4] slav4i4ok Скачать
1 | 0
Фильмы 2001-2005 [ 781 MB ] От колыбели до могилы / Cradle 2 the Grave [2003 HDTVRip] toxa1 Скачать
1 | 0
Фильмы 2001-2005 [ 1.35 GB ] От колыбели до могилы / Cradle 2 the Grave [2003 DVDRip лицензия] samorezz05 Скачать
1 | 0

28-11-2019 20:33  

Отключить всю рекламу на сайте

    Дорогой пользователь! Огромная просьба, поблагодарите релизера, оцените раздачу и оставьте свои комментарий, если Вы скачали От колыбели до могилы через торрент бесплатно! Внесите свою лепту в развитие PiratBit!
    Комментировать посты могут только пользователи прошедшие не сложную регистрацию
    Показать сообщения:    

    От колыбели до могилы через торрент
    Скачать бесплатно От колыбели до могилы
    От колыбели до могилы скачать торрент
    От колыбели до могилы смотреть онлайн
    Cкачать фильм От колыбели до могилы бесплатно
    От колыбели до могилы скачать торрент в хорошем качестве
    От колыбели до могилы смотреть онлайн бесплатно в хорошем качестве


    Вы не можете начинать темы
    Вы не можете отвечать на сообщения
    Вы не можете редактировать свои сообщения
    Вы не можете удалять свои сообщения
    Вы не можете голосовать в опросах
    Вы не можете прикреплять файлы к сообщениям
    Вы можете скачивать файлы