Ссылка на приватное зеркало нашего сайта всего за 1$. Внимание количество ограничено!!!

2 сезон

iTunes

1 сезон

1

iTunes

iTunes

iTunes

1 сезон

RePack

30

ИГРА 18+

pack

ВАЖНО

!!Акция!!

Alien_RageХит недели

RePack

MK11
pack

Забери бонус

RePack

jed

!!Акция!!

Alien_Rage

RePack

fifa19

RePack

Assassins Creed: Odyssey

RePack

NEED FOR SPEED™ PAYBACK

4 сезон

9 сезон

Бесстыжие 9 сезон

Все сериалы

все сериалы на PB.wtf

RePack

FAR CRY 5
  

Тайны следствия. Прошлый век / Серии: 1-4 из 4 (Жанна Коханова) [2019, Детектив, HDTVRip] pb.wtf

Тайны следствия. Прошлый век через торрент pb.wtf

Размер: 2.57 GB | Добавлен: 9 мес. назад | Торрент скачан:42 раза
Скачать  

31-12-2019 11:08 Тайны следствия. Прошлый век Скачать торрент  

Тайны следствия. Прошлый век
Год выпуска: 2019
Страна: Россия
Жанр: Детектив
Продолжительность: ~ 00:51:00
Перевод: Не требуется
Субтитры: отсутствуют

Режиссер: Жанна Коханова



В ролях: Анна Ковальчук, Алла Довлатова, Вячеслав Захаров, Игорь Николаев, Александр Новиков (III), Игорь Григорьев (III), Владимир Колганов, Александр Чевычелов, Александр Шпилько, Андрей Шарков, Светлана Щедрина, Олег Алмазов, Сергей Паршин, Николай Буров, Наталья Индейкина, Татьяна Полонская, Юлия Шахмуратова, Илья Тиунов, Геннадий Алимпиев, Артур Литвинов, Сергей Цветков (II), Наталья Пищикова

Описание: Новые расследования, хитроумные уловки и непредсказуемые развязки на фоне XIX века. Что было бы, если бы герои культового сериала «Тайны следствия» жили в Санкт-Петербурге XIX века? Кем могли бы быть любимые Мария Сергеевна Швецова, Ковин, Кораблёв, Курочкин, Панов почти два века назад? XIX век. Конец царствования Александра III. Эпоха романтики, благородства, а также… таинственных и изощренных преступлений. Светская дама, супруга статского советника и замминистра юстиции Мария Сергеевна Перевалова внезапно оказывается в центре криминальной истории. Казалось бы, незначительное происшествие – разбитое окно во время званого ужина в ее особняке – приводит к цепи трагических и скандальных событий, загадочным убийствам и исчезновениям. Следы ведут к преступлению государственного масштаба! К расследованию немедленно подключаются прокурор судебной палаты Ковин, штаб-офицер охранного отделения Кораблев и сотрудник полицейского сыска околоточный Курочкин. Госпожа Перевалова также не может оставаться в стороне. Хотя женщинам запрещено изучать уголовное право, а дамам ее круга не подобает даже проявлять интерес к подобным темам, Мария Сергеевна идет наперекор воле и запретам своего почтенного супруга Андрея Перевалова и активно включается в расследование...

Качество: HDTVRip
Формат: AVI

Видео: XviD, ~ 1600 Кбит/с, 720x400
Аудио: 48.0 kHz, AC3 Dolby Digital, 2/0 (L,R) ch, ~ 192 kbps
скриншот  скриншот  скриншот  

General
Complete name : C:06354Тайны следствия. Прошлый век.2019.HDTVRip2.Тайны следствия. Прошлый век.2019.HDTVRip.avi
Format : AVI
Format/Info : Audio Video Interleave
File size : 660 MiB
Duration : 51mn 13s
Overall bit rate : 1 801 Kbps
Writing application : VirtualDubMod 1.5.10.3 | www.virtualdub-fr.org || (build 2550/release)
Writing library : VirtualDubMod build 2550/release

Video
ID : 0
Format : MPEG-4 Visual
Format profile : Advanced Simple@L5
Format settings, BVOP : 1
Format settings, QPel : No
Format settings, GMC : No warppoints
Format settings, Matrix : Custom
Codec ID : XVID
Codec ID/Hint : XviD
Duration : 51mn 13s
Bit rate : 1 599 Kbps
Width : 720 pixels
Height : 400 pixels
Display aspect ratio : 16:9
Frame rate : 25.000 fps
Color space : YUV
Chroma subsampling : 4:2:0
Bit depth : 8 bits
Scan type : Progressive
Compression mode : Lossy
Bits/(Pixel*Frame) : 0.222
Stream size : 586 MiB (89%)
Writing library : XviD 73

Audio
ID : 1
Format : AC-3
Format/Info : Audio Coding 3
Mode extension : CM (complete main)
Codec ID : 2000
Duration : 51mn 13s
Bit rate mode : Constant
Bit rate : 192 Kbps
Channel(s) : 2 channels
Channel positions : Front: L R
Sampling rate : 48.0 KHz
Bit depth : 16 bits
Compression mode : Lossy
Stream size : 70.4 MiB (11%)
Alignment : Split accross interleaves
Interleave, duration : 40 ms (1.00 video frame)
Interleave, preload duration : 500 ms

pb.wtf



Скачать Тайны следствия. Прошлый век через торрент https://d.radikal.ru/d34/1912/d7/d6318d8bfa1b.jpg Скачать фильм Тайны следствия. Прошлый век через торрент бесплантно в хорошем качестве Описание: Новые расследования, хитроумные уловки и непредсказуемые развязки на фоне XIX века. Что было бы, если бы герои культового сериала ... 10 10 5
Торрент: Зарегистрирован [2019-12-31 11:08] · скачан: 42 раз
Статус: √ проверено
Размер: 2.57 GB
Как cкачать? Как скачать Тайны следствия. Прошлый век через торрент | qTorrent

% Раздел Тема Автор DL S | L
Наши сериалы [ 10.93 GB ] Тайны следствия. Прошлый век / Серии: 1-4 из 4 [2019 HDTV 1080i] bober100 Скачать
1 | 0
Наши сериалы [ 5.28 GB ] Тайны следствия. Прошлый век / Серии: 1-4 из 4 [2019 HDTVRip 720p] bober100 Скачать
1 | 0
Наши сериалы [ 3.13 GB ] Тайны следствия. Прошлый век / Серии: 1-4 из 4 [2019 HDTVRip-AVC] bober100 Скачать
1 | 0
Наши сериалы [ 2.67 GB ] Тайны следствия. Прошлый век / Серии: 1-4 из 4 [2019 SATRip] bober100 Скачать
2 | 0
Наши сериалы [ 2.43 GB ] Тайны следствия. Прошлый век / Серии: 1-4 из 4 [2019 история SATRip-AVC] aleksan55 Скачать
1 | 0

28-11-2019 20:33  

Отключить всю рекламу на сайте

    Дорогой пользователь! Огромная просьба, поблагодарите релизера, оцените раздачу и оставьте свои комментарий, если Вы скачали Тайны следствия. Прошлый век через торрент бесплатно! Внесите свою лепту в развитие PiratBit!
    Комментировать посты могут только пользователи прошедшие не сложную регистрацию
    Показать сообщения:    

    Тайны следствия. Прошлый век через торрент
    Скачать бесплатно Тайны следствия. Прошлый век
    Тайны следствия. Прошлый век скачать торрент
    Тайны следствия. Прошлый век смотреть онлайн
    Cкачать фильм Тайны следствия. Прошлый век бесплатно
    Тайны следствия. Прошлый век скачать торрент в хорошем качестве
    Тайны следствия. Прошлый век смотреть онлайн бесплатно в хорошем качестве


    Вы не можете начинать темы
    Вы не можете отвечать на сообщения
    Вы не можете редактировать свои сообщения
    Вы не можете удалять свои сообщения
    Вы не можете голосовать в опросах
    Вы не можете прикреплять файлы к сообщениям
    Вы можете скачивать файлы