Ссылка на приватное зеркало нашего сайта всего за 1$. Внимание количество ограничено!!!

2 сезон

iTunes

1 сезон

1

iTunes

iTunes

iTunes

1 сезон

RePack

30

ИГРА 18+

pack

ВАЖНО

!!Акция!!

Alien_RageХит недели

RePack

MK11
pack

Забери бонус

RePack

jed

!!Акция!!

Alien_Rage

RePack

fifa19

RePack

Assassins Creed: Odyssey

RePack

NEED FOR SPEED™ PAYBACK

4 сезон

9 сезон

Бесстыжие 9 сезон

Все сериалы

все сериалы на PB.wtf

RePack

FAR CRY 5
  

Гранд / Сезон: 3 / Серии: 1-21 из 21 (Дмитрий Грибанов) [2019, Комедия, WEBRip 720p] pb.wtf

Гранд через торрент pb.wtf

Раздают: 3 [ 101 KB/s ]
Размер: 13.16 GB | Добавлен: 6 мес. назад | Торрент скачан:41 раз
Скачать  

01-01-2020 11:00 Гранд Скачать торрент  

Гранд
Год выпуска: 2019
Страна: Россия
Жанр: Комедия
Продолжительность: ~ 00:28:00
Субтитры: отсутствуют

Режиссер: Дмитрий Грибанов

rating

В ролях: Александр Лыков, Мила Сивацкая, Константин Белошапка, Ольга Филимонова, Григорий Сиятвинда, Екатерина Вилкова, Елена Ксенофонтова, Милош Бикович, Сергей Лавыгин, Михаил Тарабукин, Ольга Кузьмина, Виктор Хориняк, Диана Пожарская

Описание: Лев Глебович открывает новый загородный отель «Гранд» и предлагает Ксении Завгородней должность управляющей. Новое место, новый персонал и новые интриги. Бывшей горничной предстоит заслужить авторитет в коллективе и справиться с катастрофой по имени Рита — дочерью Льва Глебовича.

Качество: WEBRip 720p
Формат: MKV

Видео: 1280х720 (16:9), 25 fps, AVC MPEG-4 (x264), High@L4.1 ~ 3500 kbps avg, 0.152 bit/pixel
Аудио: 48.0 kHz, AC3 Dolby Digital, 2/0 (L,R) ch, ~ 192 kbps
скриншот  скриншот  скриншот  скриншот  

Общее
Уникальный идентификатор : 205636592878052388623603313964704717560 (0x9AB42ACCDE98F16999539178E51DDAF8)
Полное имя : C: Grand.S03.2019.WEB-DL.(720p).ExKinoRay\Grand.S03.E01-02.2019.WEB-DL.(720p).ExKinoRay.mkv
Формат : Matroska
Версия формата : Version 4
Размер файла : 1,30 Гбайт
Продолжительность : 50 м. 11 с.
Общий поток : 3698 Кбит/сек
Дата кодирования : UTC 2020-01-01 09:03:28
Программа кодирования : mkvmerge v6.9.1 ('Blue Panther') 64bit built on Apr 18 2014 18:23:38
Библиотека кодирования : libebml v1.3.0 + libmatroska v1.4.1

Видео
Идентификатор : 1
Формат : AVC
Формат/Информация : Advanced Video Codec
Профиль формата : High@L4.1
Настройки формата : CABAC / 9 Ref Frames
Параметр CABAC формата : Да
Параметр RefFrames формата : 9 кадров
Идентификатор кодека : V_MPEG4/ISO/AVC
Продолжительность : 50 м. 11 с.
Битрейт : 3500 Кбит/сек
Ширина : 1280 пикселей
Высота : 720 пикселей
Соотношение сторон : 16:9
Режим частоты кадров : Постоянный
Частота кадров : 25,000 кадров/сек
Цветовое пространство : YUV
Субдискретизация насыщенности : 4:2:0
Битовая глубина : 8 бит
Тип развёртки : Прогрессивная
Бит/(Пиксели*Кадры) : 0.152
Размер потока : 1,20 Гбайт (93%)
Default : Нет
Forced : Нет
Цветовой диапазон : Limited
Основные цвета : BT.709
Характеристики трансфера : BT.709
Коэффициенты матрицы : BT.709

Аудио
Идентификатор : 2
Формат : AC-3
Формат/Информация : Audio Coding 3
Коммерческое название : Dolby Digital
Идентификатор кодека : A_AC3
Продолжительность : 50 м. 11 с.
Вид битрейта : Постоянный
Битрейт : 192 Кбит/сек
Каналы : 2 канала
ChannelLayout : L R
Частота : 48,0 КГц
Частота кадров : 31,250 кадров/сек (1536 SPF)
Метод сжатия : С потерями
Размер потока : 68,9 Мбайт (5%)
Язык : Russian
ServiceKind/String : Complete Main
Default : Да
Forced : Нет

Когда раздача ведётся путём добавления новых серий, при каждом добавлении создётся новый торрент. Чтобы начать докачку новой серии, пользователям необходимо сделать следующее:
(1) остановить скачивание,
(2) удалить старый торрент у себя из клиента (старые серии удалять не надо),
(3) скачать новый торрент и запустить его у себя в клиенте вместо старого, при этом указать клиенту путь в старую папку, куда и должно происходить скачивание новых серий.
Ваш клиент при этом должен произвести хеширование (проверку) старой папки (если не производит сам - помогите ему сделать это), и будет докачивать только те серии, которых у вас ещё нет. Старые серии при этом не удаляются, а продолжают раздаваться!
Eсли вы уже удалили старые серии, то предотвратить повторную закачку старых серий можно, отжав галочку в соответсвующих местах при запуске нового торрента. По возможности, желательно не удалять старые серии как можно дольше, чтобы релизёр не столько продолжал раздавать старые серии, а смог сконцентрироваться на новых.
pb.wtf



Скачать Гранд через торрент https://a.radikal.ru/a34/2001/60/6532855eb0ae.jpg Скачать фильм Гранд через торрент бесплантно в хорошем качестве Описание: Лев Глебович открывает новый загородный отель «Гранд» и предлагает Ксении Завгородней должность управляющей. Новое место, новый ... 9.8 10 11
Info! Золотая раздача, скачанное не засчитывается.
Торрент: Зарегистрирован [2020-04-24 18:48] · скачан: 41 раз
Статус: √ проверено
Размер: 13.16 GB
Как cкачать? Как скачать Гранд через торрент | qTorrent

% Раздел Тема Автор DL S | L
Наши сериалы [ 6.4 GB ] Гранд / Сезон: 3 / Серии: 1-21 из 21 [2019 WEBRip-AVC] bober100 Скачать
2 | 1
Наши сериалы [ 23.6 GB ] Гранд / Сезон: 3 / Серии: 1-21 из 21 [2019 WEBRip 1080p] bober100 Скачать
2 | 0
Наши сериалы [ 6.15 GB ] Гранд / Сезон: 3 / Серии: 1-21 из 21 [2019 WEBRip] bober100 Скачать
1 | 0
Автоспорт [ 102.65 GB ] Гранд Тур / The Grand Tour / Сезон: 3 / Серии: 1-14 из 14 [2019 Авто-шоу UHD WEBRip 2160p] [HDR10] MVO [AlexFilm] bober100 Скачать
1 | 0


Последний раз редактировалось: bober100 (2020-04-24 18:48), всего редактировалось 9 раз(а)

28-11-2019 20:33  

Отключить всю рекламу на сайте

31-01-2020 19:33 Гранд Скачать торрент  

Фуфло чать какое-то ?pb.wtf



10-04-2020 15:57 Гранд Скачать торрент  

Хороший сериал, есть с чего поржать! Но если не смотрели предыдущие сезоны Отеля, то будет не очень понятно и интересно!pb.wtf



    Дорогой пользователь! Огромная просьба, поблагодарите релизера, оцените раздачу и оставьте свои комментарий, если Вы скачали Гранд через торрент бесплатно! Внесите свою лепту в развитие PiratBit!
    Комментировать посты могут только пользователи прошедшие не сложную регистрацию
    Показать сообщения:    

    Гранд через торрент
    Скачать бесплатно Гранд
    Гранд скачать торрент
    Гранд смотреть онлайн
    Cкачать фильм Гранд бесплатно
    Гранд скачать торрент в хорошем качестве
    Гранд смотреть онлайн бесплатно в хорошем качестве


    Вы не можете начинать темы
    Вы не можете отвечать на сообщения
    Вы не можете редактировать свои сообщения
    Вы не можете удалять свои сообщения
    Вы не можете голосовать в опросах
    Вы не можете прикреплять файлы к сообщениям
    Вы можете скачивать файлы