2 сезон

iTunes

MVO

1

2 сезон

iTunes

iTunes

1 сезон

RePack

30

Ultimate

ВАЖНО

ИГРА 18+

pack

RePack

MK11
pack

Легкие деньги

RePack

jed

RePack

fifa19

RePack

RDR2

RePack

NEED FOR SPEED™ PAYBACK

4 сезон

9 сезон

Бесстыжие 9 сезон

Все сериалы

все сериалы на PB.wtf

RePack

FAR CRY 5

Anonymous, добрый вечер, мы не успеваем собрать деньги на оплату серверов за декабрь и январь, помогите нам пожалуйста в это трудное время. В качестве благодарности мы отключим Вам всю рекламу на сайте (укажите свой ник в строку Ваше имя)!

×
  
Magnet ссылка

Жаркие летние ночи / Hot Summer Nights (Элайджа Байнум) [2017, драма, мелодрама, комедия, криминал, BDRip (AVC) by msltel] 2 x MVO pb.wtf

Жаркие летние ночи через торрент pb.wtf

Размер: 2.1 GB | Добавлен: 1 год назад | Торрент скачан:35 раз
Скачать  

01-01-2020 13:08 Жаркие летние ночи Скачать торрент  

Название: Жаркие летние ночи
Оригинальное название: Hot Summer Nights
Год выпуска: 2017
Страна: США
Жанр: драма, мелодрама, комедия, криминал
Продолжительность: 01:47:50
Перевод: закадровый многоголосый

Режиссер: Элайджа Байнум
В ролях: Тимоти Шаламе, Майка Монро, Алекс Роу, Эмори Коэн, Томас Джейн, Майя Митчелл, Уильям Фихтнер, Джанин Серраллес, Риз Эннис, Джек Кеси, Томас Блейк, Алекс Биглейн, Ребекка Коон, Брайан Курландер, Ребекка Вейл, Джесси Эндрюс, Ребекка Рэй, Кэролайн Фридлюнд

О фильме: 1991 год. У 13-летнего подростка Дэниела Миддлтона умирает отец. Сын тяжело переживает утрату и начинает замыкаться в себе. Большую часть времени Дэниел проводит дома, занимаясь медитацией. Мама, наблюдая такое поведение, решает отправить Дэниела на лето к тёте, чтобы тот развеялся. Та живёт в небольшом курортном городке на полуострове Кейп-Код. Там Дэниел устраивается продавцом в магазине. Однажды к нему на работу забегает Хантер Строубери, легендарный местный хулиган. Он просит Дэниела спрятать его марихуану от преследующего его полицейского. После этого случая мальчики становятся друзьями. Хантер зарабатывает на жизнь продажей «травки». Дэниел просит взять и его в этот бизнес. Он быстро осваивается в этом деле и даже начинает придумывать схемы, как им можно было бы заработать ещё больше. В это время на компаньонов выходит гангстер по имени Декс. Он обещает поставлять им товар в любых количествах, в которых они только смогут его реализовать. Дела идут в гору и друзья становятся всё богаче...



Качество: BDRip (AVC)
Формат: MKV
Видео: MPEG-4 AVC, 1951 Kбит/с, 1024x426, 23.976 кадр/с
Аудио 1: русский, AC3, 192 kbps, 2 ch, 48 kHz [закадровый многоголосый, студия Мельница по заказу A-One Films - iTunes]
Аудио 2: русский, AC3, 192 kbps, 2 ch, 48 kHz [закадровый многоголосый, HDRezka Studio]
Аудио 3: английский, AC3, 448 kbps, 6 ch, 48 kHz [оригинал]
Субтитры 1: русские (FOCS)
Субтитры 2: русские (-ameli-)
Субтитры 3: английские
Главы/чаптеры
Общее
Уникальный идентификатор : 172450613939885136769854826828972829673 (0x81BCC7B6B253E17593658064B2CA2BE9)
Полное имя : D:\Video\Жаркие летние ночи.2017.BDRip (AVC) by msltel.mkv
Формат : Matroska
Версия формата : Version 4
Размер файла : 2,10 Гбайт
Продолжительность : 1 ч. 47 м.
Общий поток : 2785 Кбит/сек
Название фильма : Rip by msltel
Дата кодирования : UTC 2020-01-01 02:14:51
Программа кодирования : mkvmerge v8.2.0 ('World of Adventure') 64bit
Библиотека кодирования : libebml v1.3.1 + libmatroska v1.4.2

Видео
Идентификатор : 1
Формат : AVC
Формат/Информация : Advanced Video Codec
Профиль формата : High@L4.1
Настройки формата : CABAC / 9 Ref Frames
Параметр CABAC формата : Да
Параметр RefFrames формата : 9 кадров
Идентификатор кодека : V_MPEG4/ISO/AVC
Продолжительность : 1 ч. 47 м.
Битрейт : 1951 Кбит/сек
Ширина : 1024 пикселя
Высота : 426 пикселей
Соотношение сторон : 2,40:1
Режим частоты кадров : Постоянный
Частота кадров : 23,976 (24000/1001) кадра/сек
Цветовое пространство : YUV
Субдискретизация насыщенности : 4:2:0
Битовая глубина : 8 бит
Тип развёртки : Прогрессивная
Бит/(Пиксели*Кадры) : 0.186
Размер потока : 1,47 Гбайт (70%)
Библиотека кодирования : x264 core 157 r2935 545de2f
Настройки программы : cabac=1 / ref=9 / deblock=1:-2:-2 / analyse=0x3:0x113 / me=umh / subme=11 / psy=1 / psy_rd=1.00:0.15 / mixed_ref=1 / me_range=32 / chroma_me=1 / trellis=2 / 8x8dct=1 / cqm=0 / deadzone=21,11 / fast_pskip=0 / chroma_qp_offset=-3 / threads=6 / lookahead_threads=1 / sliced_threads=0 / nr=0 / decimate=1 / interlaced=0 / bluray_compat=0 / constrained_intra=0 / bframes=14 / b_pyramid=2 / b_adapt=2 / b_bias=0 / direct=1 / weightb=1 / open_gop=0 / weightp=2 / keyint=230 / keyint_min=23 / scenecut=40 / intra_refresh=0 / rc_lookahead=40 / rc=crf / mbtree=0 / crf=18.9 / qcomp=0.60 / qpmin=0 / qpmax=69 / qpstep=4 / vbv_maxrate=50000 / vbv_bufsize=62500 / crf_max=0.0 / nal_hrd=none / filler=0 / ip_ratio=1.40 / pb_ratio=1.30 / aq=1:1.00
Язык : English
Default : Да
Forced : Нет

Аудио #1
Идентификатор : 2
Формат : AC-3
Формат/Информация : Audio Coding 3
Коммерческое название : Dolby Digital
Идентификатор кодека : A_AC3
Продолжительность : 1 ч. 47 м.
Вид битрейта : Постоянный
Битрейт : 192 Кбит/сек
Каналы : 2 канала
ChannelLayout : L R
Частота : 48,0 КГц
Частота кадров : 31,250 кадров/сек (1536 SPF)
Метод сжатия : С потерями
Размер потока : 148 Мбайт (7%)
Заголовок : MVO студия Мельница по заказу A-One Films - iTunes
Язык : Russian
ServiceKind/String : Complete Main
Default : Да
Forced : Нет

Аудио #2
Идентификатор : 3
Формат : AC-3
Формат/Информация : Audio Coding 3
Коммерческое название : Dolby Digital
Идентификатор кодека : A_AC3
Продолжительность : 1 ч. 47 м.
Вид битрейта : Постоянный
Битрейт : 192 Кбит/сек
Каналы : 2 канала
ChannelLayout : L R
Частота : 48,0 КГц
Частота кадров : 31,250 кадров/сек (1536 SPF)
Метод сжатия : С потерями
Размер потока : 148 Мбайт (7%)
Заголовок : MVO HDRezka Studio
Язык : Russian
ServiceKind/String : Complete Main
Default : Нет
Forced : Нет

Аудио #3
Идентификатор : 4
Формат : AC-3
Формат/Информация : Audio Coding 3
Коммерческое название : Dolby Digital
Идентификатор кодека : A_AC3
Продолжительность : 1 ч. 47 м.
Вид битрейта : Постоянный
Битрейт : 448 Кбит/сек
Каналы : 6 каналов
ChannelLayout : L R C LFE Ls Rs
Частота : 48,0 КГц
Частота кадров : 31,250 кадров/сек (1536 SPF)
Метод сжатия : С потерями
Размер потока : 345 Мбайт (16%)
Заголовок : original
Язык : English
ServiceKind/String : Complete Main
Default : Нет
Forced : Нет

Текст #1
Идентификатор : 5
Формат : UTF-8
Идентификатор кодека : S_TEXT/UTF8
Идентификатор кодека/Информация : UTF-8 Plain Text
Продолжительность : 1 ч. 42 м.
Битрейт : 76 бит/сек
ElementCount : 1240
Размер потока : 57,5 Кбайт (0%)
Заголовок : русские FOCS
Язык : Russian
Default : Нет
Forced : Нет

Текст #2
Идентификатор : 6
Формат : UTF-8
Идентификатор кодека : S_TEXT/UTF8
Идентификатор кодека/Информация : UTF-8 Plain Text
Продолжительность : 1 ч. 42 м.
Битрейт : 79 бит/сек
ElementCount : 1226
Размер потока : 59,9 Кбайт (0%)
Заголовок : русские -ameli-
Язык : Russian
Default : Нет
Forced : Нет

Текст #3
Идентификатор : 7
Формат : UTF-8
Идентификатор кодека : S_TEXT/UTF8
Идентификатор кодека/Информация : UTF-8 Plain Text
Продолжительность : 1 ч. 42 м.
Битрейт : 52 бит/сек
ElementCount : 1436
Размер потока : 39,5 Кбайт (0%)
Заголовок : английские
Язык : English
Default : Нет
Forced : Нет

Меню
00:00:00.000 : en:Studio Logo
00:00:25.000 : en:Scene 2
00:06:34.000 : en:Scene 3
00:14:41.000 : en:Title Sequence
00:14:53.000 : en:Scene 5
00:23:41.000 : en:Scene 6
00:30:34.000 : en:Scene 7
00:35:50.000 : en:Scene 8
00:44:57.000 : en:Scene 9
00:47:56.000 : en:Scene 10
00:50:54.000 : en:Scene 11
00:58:59.000 : en:Scene 12
01:03:25.000 : en:Scene 13
01:11:37.000 : en:Scene 14
01:17:36.000 : en:Scene 15
01:23:55.000 : en:Scene 16
01:29:55.000 : en:Scene 17
01:39:50.000 : en:Scene 18
01:43:13.000 : en:End Credits
pb.wtf



Скачать Жаркие летние ночи через торрент https://a.radikal.ru/a07/2001/d5/ea3a470d3989.jpg Скачать фильм Жаркие летние ночи через торрент бесплантно в хорошем качестве О фильме: 1991 год. У 13-летнего подростка Дэниела Миддлтона умирает отец. Сын тяжело переживает утрату и начинает замыкаться в себе. ... 10 10 1
Торрент: Зарегистрирован [2020-01-01 13:08] · скачан: 35 раз
Статус: √ проверено
Размер: 2.1 GB
Как cкачать? Как скачать Жаркие летние ночи через торрент | UTorrent

% Раздел Тема Автор DL S | L
Фильмы [HD 720p, 1080p] (Хороший звук DUB, MVO) [ 10.16 GB ] Жаркие летние ночи / Hot Summer Nights [2017 BDRip 1080p by msltel] 2 x MVO msltel Скачать
1 | 0
Фильмы [HD 720p, 1080p] (Хороший звук DUB, MVO) [ 3.8 GB ] Жаркие летние ночи / Hot Summer Nights [2017 BDRip 720p by msltel] 2 x MVO msltel Скачать
1 | 0

28-11-2019 20:33  

Отключить всю рекламу на сайте

    Дорогой пользователь! Огромная просьба, поблагодарите релизера, оцените раздачу и оставьте свои комментарий, если Вы скачали Жаркие летние ночи через торрент бесплатно! Внесите свою лепту в развитие PiratBit!
    Комментировать посты могут только пользователи прошедшие не сложную регистрацию
    Показать сообщения:    

    Жаркие летние ночи через торрент
    Скачать бесплатно Жаркие летние ночи
    Жаркие летние ночи скачать торрент
    Жаркие летние ночи смотреть онлайн
    Cкачать фильм Жаркие летние ночи бесплатно
    Жаркие летние ночи скачать торрент в хорошем качестве
    Жаркие летние ночи смотреть онлайн бесплатно в хорошем качестве


    Вы не можете начинать темы
    Вы не можете отвечать на сообщения
    Вы не можете редактировать свои сообщения
    Вы не можете удалять свои сообщения
    Вы не можете голосовать в опросах
    Вы не можете прикреплять файлы к сообщениям
    Вы можете скачивать файлы