Доктор Стрэндж

Лицензия

Добыча

MVO

Дом дракона

1 сезон

Тор

Лицензия

Мэверик

Лицензия

Там, где раки поют

MVO

Властелин колец

1 сезон

Ultimate

pack

Рекомендуем

30

Repack

ВАЖНО

ВАЖНО

Ghostwire

RePack

jed

RePack

nioh2

RePack

RDR2

RePack

NEED FOR SPEED™ PAYBACK

RePack

скачать торрент

Кинопоиск HD

Острые козырьки 6 сезон

6 сезон

FAR CRY 6

RePack

скачать торрент

Лицензия

скачать торрент

MVO

1

1 сезон

скачать торрент

1 сезон

скачать торрент

Лицензия

  

Одесский пароход (Сергей Урсуляк) [2020, Комедия, IPTV] 1080p

Одесский пароход через торрент pb.wtf

Размер: 4.24 GB | Добавлен: 2 года 9 мес. назад | Торрент скачан:392 раза
Смотреть онлайн | Скачать   

01-01-2020 19:02 Одесский пароход Скачать торрент  


Одесский пароход


Год выпуска: 2020
Страна: Russia
Жанр:Комедия
Продолжительность: 01:24:00
Перевод: Не требуется
Субтитры: Отсутствуют
Режиссер: Сергей Урсуляк


В ролях:

Сергей Маковецкий, Владимир Машков, Тимофей Трибунцев, Сергей Гармаш, Роман Мадянов, Павел Деревянко, Чулпан Хаматова, Михаил Пореченков, Марина Александрова, Ирина Муравьёва



Судьбы героев каждой истории переплетаются, и перед зрителем предстанет панорама жизни, в которой так и не удалось заслушать начальника транспортного цеха, экипаж самолета интересуется у пассажиров, не умеет ли кто сажать самолет, буфетчица встает за штурвал парохода, а отец учит сына арифметике, уничтожая все яблоки в доме…
Качество: IPTV 1080p
Формат: MKV
Видео кодек: AVC
Аудио кодек: MPEG Audio
Видео: AVC, 1920x1080, 25.000 fps, 6 889 Kbps (0.133 bit/pixel)
Аудио: 48 kHz, MPEG Audio, 2 ch, ~128 kbps


Код:

Общее
Уникальный идентификатор                 : 294210148862255215805473391496457007587 (0xDD56D045B4FDBA47DCAE1AF3B6D6B1E3)
Полное имя                               : C:\Users\Sergej\Desktop\IPTV\Одесский пароход  (Россия 1 HD) IPTV (trygg).mkv
Формат                                   : Matroska
Версия формата                           : Version 4
Размер файла                             : 4,24 Гбайт
Продолжительность                        : 1 ч. 24 м.
Общий поток                              : 7159 Кбит/сек
Название фильма                          : 599]  Россия 1 HD
Программа кодирования                    : Lavf58.35.101
Библиотека кодирования                   : Lavf58.35.101
ErrorDetectionType                       : Per level 1

Видео
Идентификатор                            : 1
Формат                                   : AVC
Формат/Информация                        : Advanced Video Codec
Профиль формата                          : [email protected]
Настройки формата                        : 1 Ref Frames
Параметр CABAC формата                   : Нет
Параметр RefFrames формата               : 1 кадр
Параметр GOP формата                     : M=1, N=25
Идентификатор кодека                     : V_MPEG4/ISO/AVC
Продолжительность                        : 1 ч. 24 м.
Битрейт                                  : 6889 Кбит/сек
Ширина                                   : 1920 пикселей
Высота                                   : 1080 пикселей
Соотношение сторон                       : 16:9
Режим частоты кадров                     : Постоянный
Частота кадров                           : 25,000 кадров/сек
Цветовое пространство                    : YUV
Субдискретизация насыщенности            : 4:2:0
Битовая глубина                          : 8 бит
Тип развёртки                            : Прогрессивная
Бит/(Пиксели*Кадры)                      : 0.133
Размер потока                            : 4,08 Гбайт (96%)
Default                                  : Да
Forced                                   : Нет

Аудио
Идентификатор                            : 2
Формат                                   : MPEG Audio
Версия формата                           : Version 1
Профиль формата                          : Layer 3
Настройки формата                        : Joint stereo
Идентификатор кодека                     : A_MPEG/L3
Идентификатор кодека/Подсказка           : MP3
Продолжительность                        : 1 ч. 24 м.
Вид битрейта                             : Постоянный
Битрейт                                  : 128 Кбит/сек
Каналы                                   : 2 канала
Частота                                  : 48,0 КГц
Метод сжатия                             : С потерями
Размер потока                            : 77,6 Мбайт (2%)
Default                                  : Да
Forced                                   : Нет


скриншот  скриншот  скриншот  скриншот  
скриншот  скриншот  скриншот  скриншот  





Скачать Одесский пароход через торрент http://a.radikal.ru/a18/2001/89/35174fb796a4.png Скачать, смотреть онлайн Одесский пароход бесплантно в хорошем качестве В ролях:Сергей Маковецкий, Владимир Машков, Тимофей Трибунцев, Сергей Гармаш, Роман Мадянов, Павел Деревянко, Чулпан Хаматова, Михаил ... 9.6 10 14
Торрент: Зарегистрирован [2020-01-01 19:02] · скачан: 392 раз
Статус: √ проверено
Размер: 4.24 GB
Как cкачать? Как скачать Одесский пароход через торрент | UTorrent

28-11-2019 20:33  


Отключить вcю реклaмy на сайте, в т.ч. и в плеере онлайн просмотра!

02-01-2020 14:39 Одесский пароход Скачать торрент  

первый фильм нового года?



    Дорогой пользователь! Огромная просьба, поблагодарите релизера, оцените раздачу и оставьте свои комментарий, если Вы скачали Одесский пароход через торрент бесплатно!!
    Комментировать посты могут только пользователи прошедшие не сложную регистрацию
    Показать сообщения:    


    Одесский пароход через торрент
    Скачать бесплатно Одесский пароход
    Одесский пароход скачать торрент
    Одесский пароход смотреть онлайн
    Cкачать фильм Одесский пароход бесплатно
    Одесский пароход скачать торрент в хорошем качестве
    Одесский пароход смотреть онлайн бесплатно в хорошем качестве
    Вы не можете начинать темы
    Вы не можете отвечать на сообщения
    Вы не можете редактировать свои сообщения
    Вы не можете удалять свои сообщения
    Вы не можете голосовать в опросах
    Вы не можете прикреплять файлы к сообщениям
    Вы можете скачивать файлы