Ссылка на приватное зеркало нашего сайта всего за 1$. Внимание количество ограничено!!!

2 сезон

iTunes

1 сезон

1

iTunes

iTunes

iTunes

1 сезон

RePack

30

ИГРА 18+

pack

ВАЖНО

!!Акция!!

Alien_RageХит недели

RePack

MK11
pack

Забери бонус

RePack

jed

!!Акция!!

Alien_Rage

RePack

fifa19

RePack

Assassins Creed: Odyssey

RePack

NEED FOR SPEED™ PAYBACK

4 сезон

9 сезон

Бесстыжие 9 сезон

Все сериалы

все сериалы на PB.wtf

RePack

FAR CRY 5
  

Снежная Королева: Зазеркалье (Алексей Цицилин, Роберт Ленс) [2018, мультфильм, семейный, BDRip-AVC] Лицензия - ExKinoRay pb.wtf

Снежная Королева: Зазеркалье через торрент pb.wtf

Раздают: 2 [ 0 KB/s ]
Размер: 1.58 GB | Добавлен: 9 мес. назад | Торрент скачан:63 раза
Скачать  

01-01-2020 21:41 Снежная Королева: Зазеркалье Скачать торрент  

Информация о фильме
Название: Снежная Королева: Зазеркалье
Жанр: Мультфильм, комедия, приключения, семейный, фэнтези
Режиссер: Алексей Цицилин, Роберт Ленс
В ролях: Лина Иванова, Владимир Зайцев, Ольга Зубкова, Никита Прозоровский, Всеволод Кузнецов, Ляйсан Утяшева, Ирина Безрукова, Надежда Ангарская, Николай Быстров

Описание:
Могущественный король Харальд чуть не потерял семью из-за Снежной Королевы. Он находит способ очистить мир от волшебства - все обладатели магических способностей отныне заточены в Зазеркалье. Остановить его и не дать сказке навсегда исчезнуть из нашего мира может только Герда. Ведь ее главная сила не в волшебстве, а вере в добро и дружбу. В новом приключении на помощь Герде придут тролли, пираты и даже сама Снежная Королева.



Страна: Россия
Студия: Централ Партнершип, Союзмультфильм, Wizart Animation
Продолжительность: 01:27:33
Язык: Русский | Лицензия

Формат: MKV
Качество: BDRip-AVC
Видео: MPEG-4 AVC, 1024x426 (2.40:1), 24.000 fps, 2132 Kbps, 0.204 bit/pixel
Аудио: 48 kHz, AC3, 5.1, 448 Kbps | RUS |
General
Unique ID : 230959443810412517256590205864291760703 (0xADC12BBE9E339A299257AFB52E967A3F)
Complete name : F:\Snezhnaja.Koroleva.Zazerkalje.2018.BDRip.AVC.ExKinoRay.mkv
Format : Matroska
Format version : Version 2
File size : 1.58 GiB
Duration : 1 h 27 min
Overall bit rate : 2 580 kb/s
Movie name : Снежная Королева: Зазеркалье (2018) from ExKinoRay
Encoded date : UTC 2020-01-01 21:02:40
Writing application : mkvmerge v5.6.0 ('Kenya Kane') built on May 27 2012 16:44:04
Writing library : libebml v1.2.3 + libmatroska v1.3.0
Attachments : front.png

Video
ID : 1
Format : AVC
Format/Info : Advanced Video Codec
Format profile : High@L4.1
Format settings, CABAC : Yes
Format settings, ReFrames : 11 frames
Codec ID : V_MPEG4/ISO/AVC
Duration : 1 h 27 min
Bit rate : 2 132 kb/s
Width : 1 024 pixels
Height : 426 pixels
Display aspect ratio : 2.40:1
Frame rate mode : Constant
Frame rate : 24.000 FPS
Color space : YUV
Chroma subsampling : 4:2:0
Bit depth : 8 bits
Scan type : Progressive
Bits/(Pixel*Frame) : 0.204
Stream size : 1.27 GiB (81%)
Title : Enigma
Writing library : x264 core 152 r2851 ba24899
Encoding settings : cabac=1 / ref=11 / deblock=1:-2:-2 / analyse=0x3:0x113 / me=umh / subme=10 / psy=1 / psy_rd=1.00:0.05 / mixed_ref=1 / me_range=32 / chroma_me=1 / trellis=2 / 8x8dct=1 / cqm=0 / deadzone=21,11 / fast_pskip=0 / chroma_qp_offset=-3 / threads=12 / lookahead_threads=3 / sliced_threads=0 / nr=0 / decimate=0 / interlaced=0 / bluray_compat=0 / constrained_intra=0 / bframes=10 / b_pyramid=2 / b_adapt=2 / b_bias=0 / direct=3 / weightb=1 / open_gop=0 / weightp=2 / keyint=240 / keyint_min=23 / scenecut=40 / intra_refresh=0 / rc=2pass / mbtree=0 / bitrate=2132 / ratetol=1.0 / qcomp=0.60 / qpmin=0 / qpmax=51 / qpstep=4 / cplxblur=20.0 / qblur=0.5 / ip_ratio=1.40 / pb_ratio=1.30 / aq=1:1.00
Language : English
Default : Yes
Forced : No
Color range : Limited
Color primaries : BT.709
Transfer characteristics : BT.709
Matrix coefficients : BT.709

Audio
ID : 2
Format : AC-3
Format/Info : Audio Coding 3
Mode extension : CM (complete main)
Format settings, Endianness : Big
Codec ID : A_AC3
Duration : 1 h 27 min
Bit rate mode : Constant
Bit rate : 448 kb/s
Channel(s) : 6 channels
Channel positions : Front: L C R, Side: L R, LFE
Sampling rate : 48.0 kHz
Frame rate : 31.250 FPS (1536 spf)
Compression mode : Lossy
Stream size : 281 MiB (17%)
Title : License
Language : Russian
Default : Yes
Forced : No

Menu
00:00:00.000 : en:Chapter 1
00:08:10.416 : en:Chapter 2
00:15:04.041 : en:Chapter 3
00:22:39.333 : en:Chapter 4
00:28:12.375 : en:Chapter 5
00:36:42.250 : en:Chapter 6
00:41:35.916 : en:Chapter 7
00:49:17.875 : en:Chapter 8
00:56:47.708 : en:Chapter 9
01:03:48.458 : en:Chapter 10
01:11:00.666 : en:Chapter 11
01:17:34.625 : en:Chapter 12


Релиз от:

Автор релиза: pb.wtf



Скачать Снежная Королева: Зазеркалье через торрент https://st.kp.yandex.net/images/film_iphone/iphone360_1115081.jpg Скачать фильм Снежная Королева: Зазеркалье через торрент бесплантно в хорошем качестве Описание: Могущественный король Харальд чуть не потерял семью из-за Снежной Королевы. Он находит способ очистить мир от волшебства - все ... 10 10 1
Info! Золотая раздача, скачанное не засчитывается.
Торрент: Зарегистрирован [2020-01-01 21:41] · скачан: 63 раз
Статус: √ проверено
Размер: 1.58 GB
Как cкачать? Как скачать Снежная Королева: Зазеркалье через торрент | qTorrent

28-11-2019 20:33  

Отключить всю рекламу на сайте

    Дорогой пользователь! Огромная просьба, поблагодарите релизера, оцените раздачу и оставьте свои комментарий, если Вы скачали Снежная Королева: Зазеркалье через торрент бесплатно! Внесите свою лепту в развитие PiratBit!
    Комментировать посты могут только пользователи прошедшие не сложную регистрацию
    Показать сообщения:    

    Снежная Королева: Зазеркалье через торрент
    Скачать бесплатно Снежная Королева: Зазеркалье
    Снежная Королева: Зазеркалье скачать торрент
    Снежная Королева: Зазеркалье смотреть онлайн
    Cкачать фильм Снежная Королева: Зазеркалье бесплатно
    Снежная Королева: Зазеркалье скачать торрент в хорошем качестве
    Снежная Королева: Зазеркалье смотреть онлайн бесплатно в хорошем качестве


    Вы не можете начинать темы
    Вы не можете отвечать на сообщения
    Вы не можете редактировать свои сообщения
    Вы не можете удалять свои сообщения
    Вы не можете голосовать в опросах
    Вы не можете прикреплять файлы к сообщениям
    Вы можете скачивать файлы