Ссылка на приватное зеркало нашего сайта всего за 1$. Внимание количество ограничено!!!

2 сезон

iTunes

1 сезон

1

2 сезон

2 сезон

iTunes

1 сезон

RePack

30

Ultimate

ВАЖНО

ИГРА 18+

pack

RePack

MK11
pack

Забери бонус

RePack

jed

!!Акция!!

Alien_Rage

RePack

fifa19

RePack

Assassins Creed: Odyssey

RePack

NEED FOR SPEED™ PAYBACK

4 сезон

9 сезон

Бесстыжие 9 сезон

Все сериалы

все сериалы на PB.wtf

RePack

FAR CRY 5
  

Собаки не носят штанов / Koirat eivät käytä housuja (Юкка-Пекка Валькеапяя) [2019, Драма, WEB-DL 1080p] MVO [iTunes] pb.wtf

Собаки не носят штанов через торрент pb.wtf

Размер: 3.51 GB | Добавлен: 10 мес. назад | Торрент скачан:99 раз
Скачать  

02-01-2020 10:45 Собаки не носят штанов Скачать торрент  

Собаки не носят штанов / Koirat eivät käytä housuja
Год выпуска: 2019
Страна: Финляндия, Латвия
Студия: Helsinki-Filmi, Tasse Film
Жанр: Драма
Продолжительность: 01:40:39
Перевод: Профессиональный многоголосый | iTunes
Субтитры: отсутствуют

Режиссер: Юкка-Пекка Валькеапяя

rating

В ролях: Пекка Странг, Криста Косонен, Илона Хухта, Яни Воланен, Уна Айрола, Иирис Анттила, Эстер Гейслерова, Эллен Карппо, Армандс Рейнис, Самуэль Шипвей

Описание: После трагической смерти жены мужчина начинает посещать доминатрикс.

Качество: WEB-DL 1080p
Формат: MKV

Видео: MPEG-4 AVC, 4509 kbps, 1920x804
Аудио: 48 kHz, AC3 Dolby Digital, 3/2 (L,C,R,l,r) + LFE ch, ~384 kbps
скриншот  скриншот  скриншот  скриншот  скриншот  

Общее
Уникальный идентификатор : 197023421476924099523201567552803084796 (0x943954A9DB3F6CD9A0D5838CDC3E99FC)
Полное имя : DOGS_PANTS_2019_WEB-DL_1080p-BLUEBIRD.mkv
Формат : Matroska
Версия формата : Version 4 / Version 2
Размер файла : 3,51 Гбайт
Продолжительность : 1 ч. 40 м.
Общий поток : 4993 Кбит/сек
Название фильма : DOGS_PANTS_2019_WEB-DL_1080p-BLUEBIRD
Дата кодирования : UTC 2020-01-01 19:41:23
Программа кодирования : mkvmerge v6.9.1 ('Blue Panther') 32bit built on Apr 18 2014 18:15:44
Библиотека кодирования : libebml v1.3.0 + libmatroska v1.4.1
Обложка : Yes
Attachments : cover3.png

Видео
Идентификатор : 1
Формат : AVC
Формат/Информация : Advanced Video Codec
Профиль формата : High@L4
Параметр CABAC формата : Да
Параметр ReFrames формата : 5 кадров
Идентификатор кодека : V_MPEG4/ISO/AVC
Продолжительность : 1 ч. 40 м.
Битрейт : 4509 Кбит/сек
Ширина : 1920 пикселей
Высота : 804 пикселя
Соотношение сторон : 2,40:1
Режим частоты кадров : Постоянный
Частота кадров : 25,000 кадров/сек
Цветовое пространство : YUV
Субдискретизация насыщенности : 4:2:0
Битовая глубина : 8 бит
Тип развёртки : Прогрессивная
Бит/(Пиксели*Кадры) : 0.117
Размер потока : 3,17 Гбайт (90%)
Заголовок : DOGS_PANTS_2019_WEB-DL_1080p-BLUEBIRD
Язык : English
Default : Да
Forced : Нет
Цветовой диапазон : Limited
Основные цвета : BT.709
Характеристики трансфера : BT.709
Коэффициенты матрицы : BT.709

Аудио
Идентификатор : 2
Формат : AC-3
Формат/Информация : Audio Coding 3
Расширение режима : CM (complete main)
Параметр Endianness формата : Big
Идентификатор кодека : A_AC3
Продолжительность : 1 ч. 40 м.
Вид битрейта : Постоянный
Битрейт : 384 Кбит/сек
Каналы : 6 каналов
Расположение каналов : Front: L C R, Side: L R, LFE
Частота : 48,0 КГц
Частота кадров : 31,250 кадров/сек (1536 spf)
Битовая глубина : 16 бит
Метод сжатия : С потерями
Размер потока : 276 Мбайт (8%)
Заголовок : [MVO] DD 5.1 @ 384 kbps (iTunes)
Язык : Russian
Default : Да
Forced : Нет

Меню
00:00:00.000 : en:Глава 1
00:08:09.800 : en:Глава 2
00:16:25.760 : en:Глава 3
00:24:48.240 : en:Глава 4
00:33:04.000 : en:Глава 5
00:41:25.080 : en:Глава 6
00:49:50.760 : en:Глава 7
00:58:31.880 : en:Глава 8
01:07:22.640 : en:Глава 9
01:15:55.199 : en:Глава 10
01:24:12.559 : en:Глава 11
01:32:32.559 : en:Глава 12

pb.wtf



Скачать Собаки не носят штанов через торрент https://c.radikal.ru/c19/2001/30/7277395f71ad.png Скачать фильм Собаки не носят штанов через торрент бесплантно в хорошем качестве Описание: После трагической смерти жены мужчина начинает посещать ... 9 10 5
Info! Золотая раздача, скачанное не засчитывается.
Торрент: Зарегистрирован [2020-01-02 10:45] · скачан: 99 раз
Статус: √ проверено
Размер: 3.51 GB
Как cкачать? Как скачать Собаки не носят штанов через торрент | qTorrent

% Раздел Тема Автор DL S | L
Фильмы 2019-2020 [DVDrip, WEB-DLRip, HDrip] (DUB, MVO) [ 1.46 GB ] Собаки не носят штанов / Koirat eivät käytä housuja [2019 WEB-DLRip] MVO bober100 Скачать
1 | 0

28-11-2019 20:33  

Отключить всю рекламу на сайте

    Дорогой пользователь! Огромная просьба, поблагодарите релизера, оцените раздачу и оставьте свои комментарий, если Вы скачали Собаки не носят штанов через торрент бесплатно! Внесите свою лепту в развитие PiratBit!
    Комментировать посты могут только пользователи прошедшие не сложную регистрацию
    Показать сообщения:    

    Собаки не носят штанов через торрент
    Скачать бесплатно Собаки не носят штанов
    Собаки не носят штанов скачать торрент
    Собаки не носят штанов смотреть онлайн
    Cкачать фильм Собаки не носят штанов бесплатно
    Собаки не носят штанов скачать торрент в хорошем качестве
    Собаки не носят штанов смотреть онлайн бесплатно в хорошем качестве


    Вы не можете начинать темы
    Вы не можете отвечать на сообщения
    Вы не можете редактировать свои сообщения
    Вы не можете удалять свои сообщения
    Вы не можете голосовать в опросах
    Вы не можете прикреплять файлы к сообщениям
    Вы можете скачивать файлы