Всегда рабочее зеркало без VPN и Proxy просто перед .vidak.icu напиши любое слово или цифру, Пример http://ffrg.vidak.icu

iTunes

2 сезон

1 сезон

1

1 сезон

iTunes

2 сезон

13

1 сезон

Deluxe

pack

Рекомендуем

Пиратка

30

ВАЖНО

RePack

MK11

RePack

jed

RePack

fifa19

RePack

RDR2

RePack

NEED FOR SPEED™ PAYBACK

Кинопоиск HD

6 сезон

 Острые козырьки 6 сезон

Все сериалы

все сериалы на PB.wtf

RePack

FAR CRY 5

Anonymous, нам критически не хватает 5601 руб. на оплату серверов и переферии за Апрель, помоги нам пожалуйста, вся надежда только на тебя. В благодарность мы отключим тебе всю рекламу на сайте!

×
  
Magnet ссылка

Гемини / Gemini Man (Энг Ли) [2019, фантастика, боевик, триллер, драма, BDRip 720p] DUB [Лицензия] pb.wtf

Гемини через торрент pb.wtf

Размер: 5.95 GB | Добавлен: 2 года 3 мес. назад | Торрент скачан:357 раз
Смотреть онлайн Гемини | Скачать    Ребята, помогите собрать деньги на оплату серверов!!!

02-01-2020 14:59 Гемини Скачать торрент  

Гемини | Gemini Man
Год выпуска: 2019
Страна: Китай, США
Студия: Skydance Media, Jerry Bruckheimer Films, Fosun Group Forever Pictures
Жанр: фантастика, боевик, триллер, драма
Продолжительность: 01:57:00
Перевод: Дублированный | Лицензия
Субтитры: Русские (forced, Full), английские

Режиссер: Энг Ли

rating

В ролях: Уилл Смит, Мэри Элизабет Уинстэд, Клайв Оуэн, Бенедикт Вонг, Дуглас Ходж, Теодора Вулли, Ральф Браун, Линда Эмонд, Андреа Суч, Илья Волох

Описание: Генри Броган, первоклассный киллер, становится мишенью таинственного оперативника, который, кажется, знает каждый его шаг наперед...

Качество: BDRip 720p
Формат: MKV

Видео: MPEG-4 AVC, 1280x692, 6000 Kbit/s, 23.976 fps
Аудио #01: 48 kHz, AC3, 5.1, 640 Kbps | Дублированный | RUS |
Аудио #02: 48 kHz, AC3, 5.1, 640 Kbps | Оригинал | ENG |
скриншот  скриншот  скриншот  скриншот  скриншот  

General
Unique ID : 168432194779430548585522337959152355302 (0x7EB6DC5A45E43B32BAD1F31433FE87E6)
Complete name : E:Video111Gemini.Man.2019.Lic.BDRip.720p.seleZen.mkv
Format : Matroska
Format version : Version 4
File size : 5.95 GiB
Duration : 1 h 57 min
Overall bit rate : 7 282 kb/s
Movie name : Gemini Man 2019 from селезень
Encoded date : UTC 2020-01-31 22:16:21
Writing application : mkvmerge v40.0.0 ('Old Town Road + Pony') 64-bit
Writing library : libebml v1.3.9 + libmatroska v1.5.2

Video
ID : 1
Format : AVC
Format/Info : Advanced Video Codec
Format profile : High@L4.1
Format settings : CABAC / 9 Ref Frames
Format settings, CABAC : Yes
Format settings, Reference : 9 frames
Codec ID : V_MPEG4/ISO/AVC
Duration : 1 h 57 min
Bit rate : 6 000 kb/s
Width : 1 280 pixels
Height : 692 pixels
Display aspect ratio : 1.85:1
Frame rate mode : Constant
Frame rate : 23.976 (24000/1001) FPS
Color space : YUV
Chroma subsampling : 4:2:0
Bit depth : 8 bits
Scan type : Progressive
Bits/(Pixel*Frame) : 0.283
Stream size : 4.90 GiB (82%)
Title : Encoded by seleZen
Writing library : x264 core 142 r2431+42 c69a006 tMod [8-bit@all X86_64]
Encoding settings : cabac=1 / ref=9 / deblock=1:-2:-2 / analyse=0x3:0x133 / me=umh / subme=11 / psy=1 / fade_compensate=0.00 / psy_rd=0.00:0.00 / mixed_ref=1 / me_range=32 / chroma_me=1 / trellis=2 / 8x8dct=1 / cqm=0 / deadzone=21,11 / fast_pskip=0 / chroma_qp_offset=0 / threads=24 / lookahead_threads=5 / sliced_threads=0 / nr=0 / decimate=0 / interlaced=0 / bluray_compat=0 / constrained_intra=0 / fgo=0 / bframes=10 / b_pyramid=2 / b_adapt=2 / b_bias=0 / direct=3 / weightb=1 / open_gop=0 / weightp=2 / keyint=240 / keyint_min=23 / scenecut=40 / intra_refresh=0 / rc_lookahead=50 / rc=2pass / mbtree=0 / bitrate=6000 / ratetol=1.0 / qcomp=0.60 / qpmin=0:0:0 / qpmax=51:51:51 / qpstep=4 / cplxblur=20.0 / qblur=0.5 / vbv_maxrate=50000 / vbv_bufsize=62500 / nal_hrd=none / filler=0 / ip_ratio=1.40 / pb_ratio=1.30 / aq=3:0.80 / aq-sensitivity=10.00 / aq-factor=1.00:1.00:1.00 / aq2=0 / aq3=0
Language : English
Default : Yes
Forced : No

Audio #1
ID : 2
Format : AC-3
Format/Info : Audio Coding 3
Commercial name : Dolby Digital
Codec ID : A_AC3
Duration : 1 h 57 min
Bit rate mode : Constant
Bit rate : 640 kb/s
Channel(s) : 6 channels
Channel layout : L R C LFE Ls Rs
Sampling rate : 48.0 kHz
Frame rate : 31.250 FPS (1536 SPF)
Compression mode : Lossy
Stream size : 536 MiB (9%)
Title : Dub [License]
Language : Russian
Service kind : Complete Main
Default : Yes
Forced : Yes

Audio #2
ID : 3
Format : AC-3
Format/Info : Audio Coding 3
Commercial name : Dolby Digital
Codec ID : A_AC3
Duration : 1 h 57 min
Bit rate mode : Constant
Bit rate : 640 kb/s
Channel(s) : 6 channels
Channel layout : L R C LFE Ls Rs
Sampling rate : 48.0 kHz
Frame rate : 31.250 FPS (1536 SPF)
Compression mode : Lossy
Stream size : 536 MiB (9%)
Title : Original
Language : English
Service kind : Complete Main
Default : No
Forced : No

Text #1
ID : 4
Format : UTF-8
Codec ID : S_TEXT/UTF8
Codec ID/Info : UTF-8 Plain Text
Duration : 1 h 55 min
Bit rate : 0 b/s
Count of elements : 16
Stream size : 581 Bytes (0%)
Title : Forced
Language : Russian
Default : Yes
Forced : Yes

Text #2
ID : 5
Format : UTF-8
Codec ID : S_TEXT/UTF8
Codec ID/Info : UTF-8 Plain Text
Duration : 1 h 55 min
Bit rate : 69 b/s
Count of elements : 1336
Stream size : 59.1 KiB (0%)
Title : Full
Language : Russian
Default : No
Forced : No

Text #3
ID : 6
Format : UTF-8
Codec ID : S_TEXT/UTF8
Codec ID/Info : UTF-8 Plain Text
Duration : 1 h 45 min
Bit rate : 49 b/s
Count of elements : 1356
Stream size : 38.5 KiB (0%)
Title : Full
Language : English
Default : No
Forced : No

Menu
00:00:00.000 : en:Глава 01
00:07:21.650 : en:Глава 02
00:15:31.681 : en:Глава 03
00:18:13.134 : en:Глава 04
00:24:39.520 : en:Глава 05
00:30:59.441 : en:Глава 06
00:34:09.464 : en:Глава 07
00:42:40.308 : en:Глава 08
00:50:24.897 : en:Глава 09
00:56:45.819 : en:Глава 10
01:03:30.306 : en:Глава 11
01:08:13.172 : en:Глава 12
01:16:45.935 : en:Глава 13
01:24:43.996 : en:Глава 14
01:30:04.733 : en:Глава 15
01:34:00.927 : en:Глава 16
01:42:14.462 : en:Глава 17
01:47:07.588 : en:Глава 18

pb.wtf



Скачать Гемини через торрент https://img16.lostpic.net/2020/01/02/7e4b554ae860541484bd5baf293a4153.jpg Скачать, смотреть онлайн Гемини бесплантно в хорошем качестве Описание: Генри Броган, первоклассный киллер, становится мишенью таинственного оперативника, который, кажется, знает каждый его шаг ... 10 10 7
Торрент: Зарегистрирован [2020-02-01 03:44] · скачан: 357 раз
Статус: √ проверено
Размер: 5.95 GB
Как cкачать? Как скачать Гемини через торрент | UTorrent

% Раздел Тема Автор DL S | L
Фильмы с авторской озвучкой [ 2.23 GB ] Гемини / Gemini Man [2019 BDRip-AVC] [AVO] killermax2013 Скачать
1 | 0
Ultra HD (UHD: 2K, 4K, 8K) — видео сверхвысокой чёткости [ 21.94 GB ] Гемини / Gemini Man [2019 UHD BDRip 2160p ] bober100 Скачать
1 | 0
Фильмы 2019-2020 [DVDrip, WEB-DLRip, HDrip] (DUB, MVO) [ 2.18 GB ] Гемини / Gemini Man [2019 BDRip] - [] Twi7ter Скачать
9 | 0
3D Видео (48-60 fps) [ 4.88 GB ] Гемини в 3D / Gemini Man in 3D [2019 BDRip 720p / 60 FPS ] Анаглиф от R.G. HD-Films slaventi-69 Скачать
1 | 0
3D Фильмы [ 7.31 GB ] Гемини в 3D / Gemini Man in 3D [2019 BDRip 1080p ] Анаглиф от R.G. HD-Films slaventi-69 Скачать
1 | 1
Ultra HD (UHD: 2K, 4K, 8K) — видео сверхвысокой чёткости [ 83.68 GB ] Гемини / Gemini Man [2019 UHD Blu-ray 2160p] [] sheker187 Скачать
1 | 0
3D Фильмы [ 15.81 GB ] Гемини в 3Д / Gemini Man 3D [2019 BDRip 1080p] OverUnder / Вертикальная стереопара serega768 Скачать
1 | 0

28-11-2019 20:33  

Отключить всю рекламу на сайте

01-02-2020 10:00 Гемини Скачать торрент  

Чёрный двойной удар pb.wtf



    Дорогой пользователь! Огромная просьба, поблагодарите релизера, оцените раздачу и оставьте свои комментарий, если Вы скачали Гемини через торрент бесплатно!
    Комментировать посты могут только пользователи прошедшие не сложную регистрацию
    Показать сообщения:    

    Гемини через торрент
    Скачать бесплатно Гемини
    Гемини скачать торрент
    Гемини смотреть онлайн
    Cкачать фильм Гемини бесплатно
    Гемини скачать торрент в хорошем качестве
    Гемини смотреть онлайн бесплатно в хорошем качестве


    Вы не можете начинать темы
    Вы не можете отвечать на сообщения
    Вы не можете редактировать свои сообщения
    Вы не можете удалять свои сообщения
    Вы не можете голосовать в опросах
    Вы не можете прикреплять файлы к сообщениям
    Вы можете скачивать файлы