Всегда рабочее зеркало без VPN и Proxy просто перед .vidak.icu напиши любое слово или цифру, Пример http://tqau.vidak.icu

Лицензия

MVO

1 сезон

1

1 сезон

iTunes

1 сезон

13

1 сезон

Deluxe

pack

Рекомендуем

Repack

30

ВАЖНО

RePack

MK11

RePack

jed

RePack

fifa19

RePack

RDR2

RePack

NEED FOR SPEED™ PAYBACK

Кинопоиск HD

6 сезон

 Острые козырьки 6 сезон

Все сериалы

все сериалы на PB.wtf

RePack

FAR CRY 5
  
Magnet ссылка

Зелёный фургон. Совсем другая история / Сезон: 1 / Серии: 1-16 из 16 (Сергей Крутин) [2020, Детектив, криминал, комедия, SATRip] pb.wtf

Зелёный фургон. Совсем другая история через торрент pb.wtf

Размер: 10.61 GB | Добавлен: 2 года 7 мес. назад | Торрент скачан:192 раза
Смотреть онлайн Зелёный фургон. Совсем другая история | Скачать    Ребята, помогите собрать деньги на оплату серверов!!!

03-01-2020 10:48 Зелёный фургон. Совсем другая история Скачать торрент  

Зелёный фургон. Совсем другая история Год выпуска: 2020
Страна: Россия
Жанр: Детектив, криминал, комедия
Продолжительность: ~ 00:50:00
Субтитры: отсутствуют

Режиссер: Сергей Крутин



В ролях: Дмитрий Харатьян, Семён Трескунов, Екатерина Олькина, Александр Наумов, Наталия Вдовина, Наталья Кийко, Валерий Кухарешин, Артур Ваха, Екатерина Дурова, Артур Сопельник, Александр Рапопорт, Вячеслав Манучаров, Александр Коршунов, Юрий Маслак, Анатолий Кот, Ярослав Жалнин, Александр Давыдов (IV), Олег Масленников-Войтов, Егор Клеймёнов, Алексей Дмитриев, Александр Пугачёв (II), Светлана Казарцева, Александр Сергеев (IV), Владимир Румянцев, Михаил Колядин, Сергей Тишин, Евгений Кушпель, Эдуард Нахатакян, Юрий Литвинов (II), Ольга Гринджак, Ольга Дегтярёва, Анатолий Матешов, Виталия Корниенко, Алексей Овсянников, Константин Тополага, Александр Богданов (II), Алексей Ушаков (III), Евгений Гончаров, Екатерина Тарасова (II), Александр Коваль (IV), Виктория Адельфина, Лина Весёлкина, Игорь Макаров (II), Наталья Тищенко, Владимир Волжин, Ярослав Коробанов, Сергей Граб, Дмитрий Овчинников, Ульяна Панова, Максим Кузин, Артём Киселёв, Виктор Фалалеев, Валерий Гришин, Елена Кабанова, Алексей Бурко, Никита Белых, Татьяна Ометова, Артур Павленко, Василий Куприянов, Александр Скулков, Юлия Балицкая

Описание: 1946 год. Спустя 20 лет, всё в той же Одессе, повзрослевший Володя Патрикеев продолжает бороться с преступностью. Отсидев в тюрьме в 1937 году, отвоевав в штрафбате, а затем в разведроте, он возвращается в гражданскую жизнь и начинает расследовать сложные уголовные дела под руководством совсем "зеленого" сержанта Жени Красавина... Их первое, незначительное, расследование о суррогатной водке, наводнившей город, выводит сыщиков на самый верх, в Москву. И, если они не остановят преступников, может грянуть крупнейший геополитический скандал...

Качество: SATRip
Формат: AVI

Видео: XviD, 720x400, ~ 1700 Кбит/с, 0.236 bit/pixel
Аудио: МР3, 48,0 КГц, 2 ch, 192 Кбит/с
скриншот  скриншот  скриншот  

скриншот  скриншот  скриншот  

Общее
Полное имя : D:\Зелёный.фургон(Совсем.другая.история).2019.XviD.SATRip.Kinozal-Reliz.7turza\01.Зелёный.фургон.Kinozal-Reliz.7turza.avi
Формат : AVI
Формат/Информация : Audio Video Interleave
Размер файла : 666 Мбайт
Продолжительность : 48 м. 58 с.
Общий поток : 1902 Кбит/сек
Название фильма : S01 E01 # from 7turza #
Программа кодирования : Lavf58.29.100

Видео
Идентификатор : 0
Формат : MPEG-4 Visual
Профиль формата : Advanced [email protected]
Настройки формата : BVOP1
Параметр BVOP формата : 1
Параметр QPel формата : Нет
Параметр GMC формата : Без точки перехода
Параметр матрицы формата : Default (H.263)
Идентификатор кодека : XVID
Идентификатор кодека/Подсказка : XviD
Продолжительность : 48 м. 58 с.
Битрейт : 1697 Кбит/сек
Ширина : 720 пикселей
Высота : 400 пикселей
Соотношение сторон : 16:9
Частота кадров : 25,000 кадров/сек
Цветовое пространство : YUV
Субдискретизация насыщенности : 4:2:0
Битовая глубина : 8 бит
Тип развёртки : Прогрессивная
Бит/(Пиксели*Кадры) : 0.236
Размер потока : 595 Мбайт (89%)
Библиотека кодирования : XviD 67

Аудио
Идентификатор : 1
Формат : MPEG Audio
Версия формата : Version 1
Профиль формата : Layer 3
Настройки формата : Joint stereo / MS Stereo
Идентификатор кодека : 55
Идентификатор кодека/Подсказка : MP3
Продолжительность : 48 м. 58 с.
Вид битрейта : Постоянный
Битрейт : 192 Кбит/сек
Каналы : 2 канала
Частота : 48,0 КГц
Размер потока : 67,3 Мбайт (10%)
Выравнивание : Соединение по промежуткам
Продолжительность промежутка : 24 мс. (0,60 видеокадр)

Внимание! Раздача ведётся путём добавления новых серий; при каждом добавлении создаётся новый торрент.
Чтобы начать докачку новой серии, пользователям необходимо сделать следующее:
1. Остановить скачивание;
2. Удалить старый торрент у себя из клиента (старые серии удалять не надо);
3. Скачать новый торрент и запустить его у себя в клиенте вместо старого, при этом указать клиенту путь в старую папку куда и должно происходить скачивание новых серий. Ваш клиент при этом должен произвести хеширование (проверку) старой папки и будет докачивать только те серии, которых у вас ещё нет. Старые серии при этом не удаляются, а продолжают раздаваться! Eсли вы уже удалили старые серии, то предотвратить повторную закачку старых серий можно, отжав галочку в соответствующих местах при запуске нового торрента.
pb.wtf



Скачать Зелёный фургон. Совсем другая история через торрент https://b.radikal.ru/b11/2001/55/218aacf44346.jpg Скачать, смотреть онлайн Зелёный фургон. Совсем другая история бесплантно в хорошем качестве Описание: 1946 год. Спустя 20 лет, всё в той же Одессе, повзрослевший Володя Патрикеев продолжает бороться с преступностью. Отсидев в ... 9.9 10 17
Торрент: Зарегистрирован [2020-01-10 13:23] · скачан: 192 раз
Статус: √ проверено
Размер: 10.61 GB
Как cкачать? Как скачать Зелёный фургон. Совсем другая история через торрент | UTorrent

% Раздел Тема Автор DL S | L
Наши сериалы [ 15.83 GB ] Зелёный фургон. Совсем другая история / Сезон: 1 / Серии: 1-16 из 16 [2020 WEB-DL 720p] bober100 Скачать
1 | 0
Наши сериалы [ 37.38 GB ] Зелёный фургон. Совсем другая история / Сезон: 1 / Серии: 1-16 из 16 [2020 HDTV 1080i] bober100 Скачать
1 | 0
Наши сериалы [ 29.37 GB ] Зелёный фургон. Совсем другая история / Сезон: 1 / Серии: 1-16 из 16 [2020 WEB-DL 1080p] bober100 Скачать
1 | 0
Наши сериалы [ 20.97 GB ] Зелёный фургон. Совсем другая история / Сезон: 1 / Серии: 1-16 из 16 [2020 HDTVRip 720p] bober100 Скачать
1 | 0
Наши сериалы [ 12.45 GB ] Зелёный фургон. Совсем другая история / Сезон: 1 / Серии: 1-16 из 16 [2020 HDTVRip-AVC] bober100 Скачать
1 | 0
Наши сериалы [ 10.23 GB ] Зелёный фургон. Совсем другая история / Сезон: 1 / Серии: 1-16 из 16 [2020 HDTVRip] bober100 Скачать
1 | 0

28-11-2019 20:33  

Отключить вcю реклaмy на сайте

    Дорогой пользователь! Огромная просьба, поблагодарите релизера, оцените раздачу и оставьте свои комментарий, если Вы скачали Зелёный фургон. Совсем другая история через торрент бесплатно!
    Комментировать посты могут только пользователи прошедшие не сложную регистрацию
    Показать сообщения:    

    Зелёный фургон. Совсем другая история через торрент
    Скачать бесплатно Зелёный фургон. Совсем другая история
    Зелёный фургон. Совсем другая история скачать торрент
    Зелёный фургон. Совсем другая история смотреть онлайн
    Cкачать фильм Зелёный фургон. Совсем другая история бесплатно
    Зелёный фургон. Совсем другая история скачать торрент в хорошем качестве
    Зелёный фургон. Совсем другая история смотреть онлайн бесплатно в хорошем качестве


    Вы не можете начинать темы
    Вы не можете отвечать на сообщения
    Вы не можете редактировать свои сообщения
    Вы не можете удалять свои сообщения
    Вы не можете голосовать в опросах
    Вы не можете прикреплять файлы к сообщениям
    Вы можете скачивать файлы