2 сезон

iTunes

WEBRip

1

2 сезон

iTunes

1 сезон

1 сезон

RePack

30

Новинка

ВАЖНО

ИГРА 18+

pack

RePack

MK11
pack

Легкие деньги

RePack

jed

RePack

fifa19

RePack

RDR2

RePack

NEED FOR SPEED™ PAYBACK

4 сезон

9 сезон

Бесстыжие 9 сезон

Все сериалы

все сериалы на PB.wtf

RePack

FAR CRY 5

Anonymous, добрый вечер, мы не успеваем собрать деньги на оплату серверов за февраль, помогите нам пожалуйста в это трудное время. В качестве благодарности мы отключим Вам всю рекламу на сайте (укажите свой ник в строку Ваше имя)!

×
  
Magnet ссылка

Пароль: Хаус / H0us3 (Маноло Мунгуйя) [2018, ужасы, фантастика, триллер, WEB-DL 720p] DUB [iTunes] pb.wtf

Пароль: Хаус через торрент pb.wtf

Раздают: 2 [ 0 KB/s ]
Размер: 3.23 GB | Добавлен: 1 год назад | Торрент скачан:229 раз
Скачать  

03-01-2020 17:25 Пароль: Хаус Скачать торрент  

Пароль: Хаус | H0us3
Год выпуска: 2018
Страна: Испания
Студия: Ghostdog SL, Horror Box
Жанр: ужасы, фантастика, триллер
Продолжительность: 01:44:50
Перевод: Дублированный | iTunes
Субтитры: отсутствуют

Режиссер: Маноло Мунгуйя

rating

В ролях: Мириам Тортоза, Мариона Тена, Бернат Местре, Анна Бертран, Виктор Гомес, Рок Эсквиус, Диана Ройг, Рубен Серрано, Кристина Райя, Мариола Фустер

Описание: Рафа и Люсия приглашают компанию своих бывших однокурсников провести уикенд в их загородном доме. Тишина и шикарные виды, вино, веселые воспоминания… Во время ужина Рафа, еще в студенчестве заслуживший звание компьютерного гения, признается, что нашел в интернете и расшифровал архив с суперсекретной программой. И теперь, установив эту программу на обычный смартфон, можно заглянуть в будущее — пока всего на 30 секунд. А почему бы и нет — решают друзья, не предполагая, что втягиваются в опасную игру, которая может изменить всю историю человечества… и их собственные жизни.

Качество: WEB-DL 720p
Формат: MKV

Видео: MPEG-4 AVC, 1280x536, 3934 Kbit/s, 24 fps
Аудио: 48 kHz, AC3, 5.1, 384 Kbps | iTunes | RUS |
скриншот  скриншот  

Общее
Уникальный идентификатор : 8289447745739383924599644396381102297 (0x63C7D540A2F049BA6AFB6E5AF2960D9)
Полное имя : C:\H0us3.2018.720p.WEB-DL.Rus.TeamHD.mkv
Формат : Matroska
Версия формата : Version 4
Размер файла : 3,23 Гбайт
Продолжительность : 1 ч. 44 м.
Общий поток : 4406 Кбит/сек
Дата кодирования : UTC 2020-02-18 08:20:17
Программа кодирования : mkvmerge v8.5.1 ('Where you lead I will follow') 64bit
Библиотека кодирования : libebml v1.3.3 + libmatroska v1.4.4

Видео
Идентификатор : 1
Формат : AVC
Формат/Информация : Advanced Video Codec
Профиль формата : Main@L3.1
Настройки формата : 2 Ref Frames
Параметр CABAC формата : Нет
Параметр RefFrames формата : 2 кадра
Идентификатор кодека : V_MPEG4/ISO/AVC
Продолжительность : 1 ч. 44 м.
Битрейт : 3934 Кбит/сек
Ширина : 1280 пикселей
Высота : 536 пикселей
Соотношение сторон : 2,40:1
Режим частоты кадров : Постоянный
Частота кадров : 24,000 кадра/сек
Цветовое пространство : YUV
Субдискретизация насыщенности : 4:2:0
Битовая глубина : 8 бит
Тип развёртки : Прогрессивная
Бит/(Пиксели*Кадры) : 0.239
Размер потока : 2,88 Гбайт (89%)
Заголовок : Main Program
Язык : Spanish
Default : Да
Forced : Нет
Цветовой диапазон : Limited
Основные цвета : BT.709
Характеристики трансфера : BT.709
Коэффициенты матрицы : BT.709

Аудио
Идентификатор : 2
Формат : AC-3
Формат/Информация : Audio Coding 3
Коммерческое название : Dolby Digital
Идентификатор кодека : A_AC3
Продолжительность : 1 ч. 44 м.
Вид битрейта : Постоянный
Битрейт : 384 Кбит/сек
Каналы : 6 каналов
ChannelLayout : L R C LFE Ls Rs
Частота : 48,0 КГц
Частота кадров : 31,250 кадров/сек (1536 SPF)
Битовая глубина : 16 бит
Метод сжатия : С потерями
Размер потока : 288 Мбайт (9%)
Заголовок : Russian DUB from iTunes Russia DD 5.1
Язык : Russian
ServiceKind/String : Complete Main
Default : Да
Forced : Нет

Меню
00:00:00.000 : en:Глава 1
00:06:33.333 : en:Глава 2
00:19:16.708 : en:Глава 3
00:33:00.874 : en:Глава 4
00:40:34.540 : en:Глава 5
00:49:22.165 : en:Глава 6
00:52:59.581 : en:Глава 7
00:57:37.872 : en:Глава 8
01:03:47.705 : en:Глава 9
01:09:26.330 : en:Глава 10
01:22:13.913 : en:Глава 11
01:33:01.538 : en:Глава 12

pb.wtf



Скачать Пароль: Хаус через торрент https://c.radikal.ru/c20/2001/90/bcda414ee944.jpg Скачать фильм Пароль: Хаус через торрент бесплантно в хорошем качестве Описание: Рафа и Люсия приглашают компанию своих бывших однокурсников провести уикенд в их загородном доме. Тишина и шикарные виды, вино, ... 10 10 17
Торрент: Зарегистрирован [2020-02-18 13:52] · скачан: 229 раз
Статус: √ проверено
Размер: 3.23 GB
Как cкачать? Как скачать Пароль: Хаус через торрент | UTorrent

% Раздел Тема Автор DL S | L
Фильмы 2018 [DVDrip, WEB-DLRip, HDrip] (DUB, MVO) [ 745 MB ] Пароль: Хаус / H0us3 [2018 WEB-DLRip] bober100 Скачать
1 | 0
Фильмы (WEB-DL 720p, 1080p) [ 3.55 GB ] Пароль: Хаус / H0us3 [2018 WEB-DL 1080p] bober100 Скачать
2 | 0
Фильмы 2018 [DVDrip, WEB-DLRip, HDrip] (DUB, MVO) [ 1.46 GB ] Пароль: Хаус / H0us3 [2018 WEB-DLRip] bober100 Скачать
5 | 0

28-11-2019 20:33  

Отключить всю рекламу на сайте

19-02-2020 11:41 Пароль: Хаус Скачать торрент  

Ожидал хороший фильм, а получилась очень нудная фигня.pb.wtf



19-02-2020 17:12 Пароль: Хаус Скачать торрент  

Мне стало страшно. Мурашки бегали по коже. Ни какой крови и маньяков, только диалоги. Действительно стало не по себе.
пс. А нудятина - это ваши комиксы и человекопуки.pb.wtf



    Дорогой пользователь! Огромная просьба, поблагодарите релизера, оцените раздачу и оставьте свои комментарий, если Вы скачали Пароль: Хаус через торрент бесплатно! Внесите свою лепту в развитие PiratBit!
    Комментировать посты могут только пользователи прошедшие не сложную регистрацию
    Показать сообщения:    

    Пароль: Хаус через торрент
    Скачать бесплатно Пароль: Хаус
    Пароль: Хаус скачать торрент
    Пароль: Хаус смотреть онлайн
    Cкачать фильм Пароль: Хаус бесплатно
    Пароль: Хаус скачать торрент в хорошем качестве
    Пароль: Хаус смотреть онлайн бесплатно в хорошем качестве


    Вы не можете начинать темы
    Вы не можете отвечать на сообщения
    Вы не можете редактировать свои сообщения
    Вы не можете удалять свои сообщения
    Вы не можете голосовать в опросах
    Вы не можете прикреплять файлы к сообщениям
    Вы можете скачивать файлы