Ссылка на приватное зеркало нашего сайта всего за 1$. Внимание количество ограничено!!!

2 сезон

iTunes

1 сезон

1

iTunes

iTunes

iTunes

1 сезон

RePack

30

ИГРА 18+

pack

ВАЖНО

!!Акция!!

Alien_RageХит недели

RePack

MK11
pack

Забери бонус

RePack

jed

!!Акция!!

Alien_Rage

RePack

fifa19

RePack

Assassins Creed: Odyssey

RePack

NEED FOR SPEED™ PAYBACK

4 сезон

9 сезон

Бесстыжие 9 сезон

Все сериалы

все сериалы на PB.wtf

RePack

FAR CRY 5
  

Зелёный фургон. Совсем другая история / Сезон: 1 / Серии: 1-16 из 16 (Сергей Крутин) [2020, Детектив, криминал, комедия, HDTV 1080i] pb.wtf

Зелёный фургон. Совсем другая история через торрент pb.wtf

Размер: 37.38 GB | Добавлен: 9 мес. назад | Торрент скачан:110 раз
Скачать  

03-01-2020 18:44 Зелёный фургон. Совсем другая история Скачать торрент  

Зелёный фургон. Совсем другая история Год выпуска: 2020
Страна: Россия
Жанр: Детектив, криминал, комедия
Продолжительность: ~ 00:50:00
Перевод: Не требуется
Субтитры: отсутствуют

Режиссер: Сергей Крутин



В ролях: Дмитрий Харатьян, Семён Трескунов, Екатерина Олькина, Александр Наумов, Наталия Вдовина, Наталья Кийко, Валерий Кухарешин, Артур Ваха, Екатерина Дурова, Артур Сопельник, Александр Рапопорт, Вячеслав Манучаров, Александр Коршунов, Юрий Маслак, Анатолий Кот, Ярослав Жалнин, Александр Давыдов (IV), Олег Масленников-Войтов, Егор Клеймёнов, Алексей Дмитриев, Александр Пугачёв (II), Светлана Казарцева, Александр Сергеев (IV), Владимир Румянцев, Михаил Колядин, Сергей Тишин, Евгений Кушпель, Эдуард Нахатакян, Юрий Литвинов (II), Ольга Гринджак, Ольга Дегтярёва, Анатолий Матешов, Виталия Корниенко, Алексей Овсянников, Константин Тополага, Александр Богданов (II), Алексей Ушаков (III), Евгений Гончаров, Екатерина Тарасова (II), Александр Коваль (IV), Виктория Адельфина, Лина Весёлкина, Игорь Макаров (II), Наталья Тищенко, Владимир Волжин, Ярослав Коробанов, Сергей Граб, Дмитрий Овчинников, Ульяна Панова, Максим Кузин, Артём Киселёв, Виктор Фалалеев, Валерий Гришин, Елена Кабанова, Алексей Бурко, Никита Белых, Татьяна Ометова, Артур Павленко, Василий Куприянов, Александр Скулков, Юлия Балицкая

Описание: 1946 год. Спустя 20 лет, всё в той же Одессе, повзрослевший Володя Патрикеев продолжает бороться с преступностью. Отсидев в тюрьме в 1937 году, отвоевав в штрафбате, а затем в разведроте, он возвращается в гражданскую жизнь и начинает расследовать сложные уголовные дела под руководством совсем "зеленого" сержанта Жени Красавина... Их первое, незначительное, расследование о суррогатной водке, наводнившей город, выводит сыщиков на самый верх, в Москву. И, если они не остановят преступников, может грянуть крупнейший геополитический скандал...

Качество: HDTV 1080i
Формат: TS

Видео: AVC, ~ 5400 Кбит/с, 1920x1080, 25 кадр/с
Аудио#1: Русский (AC3, 6 ch, 384 Кбит/с)
Аудио#2: Русский (MP2, 2 ch, 192 Кбит/с)
скриншот  скриншот  скриншот  скриншот  

Общее
Идентификатор : 1 (0x1)
Полное имя : D:ЗаписьZeljonyj furgon.HDTV(1080i).GeneralFilm1.Zeljonyj furgon.HDTV(1080i).GeneralFilm.ts
Формат : MPEG-TS
Размер файла : 2,25 Гбайт
Продолжительность : 48 м.
Режим общего битрейта : Переменный
Общий поток : 6570 Кбит/сек

Видео
Идентификатор : 1904 (0x770)
Идентификатор меню : 80 (0x50)
Формат : AVC
Формат/Информация : Advanced Video Codec
Профиль формата : High@L4.0
Параметр CABAC формата : Да
Параметр ReFrames формата : 3 кадра
Идентификатор кодека : 27
Продолжительность : 48 м.
Битрейт : 5663 Кбит/сек
Ширина : 1920 пикселей
Высота : 1080 пикселей
Соотношение сторон : 16:9
Частота кадров : 25,000 кадров/сек
Стандарт вещания : Component
Цветовое пространство : YUV
Субдискретизация насыщенности : 4:2:0
Битовая глубина : 8 бит
Тип развёртки : Чересстрочная
Порядок развёртки : Верхнее поле первое
Бит/(Пиксели*Кадры) : 0.109
Размер потока : 1,94 Гбайт (86%)
Основные цвета : BT.709
Характеристики трансфера : BT.709
Коэффициенты матрицы : BT.709

Аудио #1
Идентификатор : 2904 (0xB58)
Идентификатор меню : 80 (0x50)
Формат : AC-3
Формат/Информация : Audio Coding 3
Расширение режима : CM (complete main)
Параметр Endianness формата : Big
Идентификатор кодека : 6
Продолжительность : 48 м.
Вид битрейта : Постоянный
Битрейт : 384 Кбит/сек
Каналы : 6 каналов
Расположение каналов : Front: L C R, Side: L R, LFE
Частота : 48,0 КГц
Битовая глубина : 16 бит
Метод сжатия : С потерями
Задержка видео : -120 мс.
Размер потока : 135 Мбайт (6%)
Язык : Russian

Аудио #2
Идентификатор : 2905 (0xB59)
Идентификатор меню : 80 (0x50)
Формат : MPEG Audio
Версия формата : Version 1
Профиль формата : Layer 2
Идентификатор кодека : 3
Продолжительность : 48 м.
Вид битрейта : Постоянный
Битрейт : 192 Кбит/сек
Каналы : 2 канала
Частота : 48,0 КГц
Метод сжатия : С потерями
Задержка видео : -120 мс.
Размер потока : 67,3 Мбайт (3%)
Язык : Russian

Раздача ведётся путём добавления новых серий, при каждом добавлении создаётся новый торрент. Чтобы начать докачку новой серии, пользователям необходимо сделать следующее:

- Остановить скачивание.
- Удалить старый торрент у себя из клиента (старые серии удалять не надо).
- Скачать новый торрент и запустить его у себя в клиенте вместо старого, при этом указать клиенту путь в старую папку куда и должно происходить скачивание новых серий.

Ваш клиент при этом должен произвести хеширование (проверку) старой папки (если не производит сам - помогите ему сделать это), и будет докачивать только те серии которых у вас ещё нет. Старые серии при этом не удаляются, а продолжают раздаваться!
Если вы уже удалили старые серии, то предотвратить повторную закачку старых серий можно, отжав галочку в соответствующих местах при запуске нового торрента. По возможности, желательно не удалять старые серии как можно дольше, чтобы релизер не столько продолжал раздавать старые серии, а смог сконцентрироваться на новых.
pb.wtf



Скачать Зелёный фургон. Совсем другая история через торрент http://c.radikal.ru/c27/2001/aa/267237c40ef6.jpg Скачать фильм Зелёный фургон. Совсем другая история через торрент бесплантно в хорошем качестве Описание: 1946 год. Спустя 20 лет, всё в той же Одессе, повзрослевший Володя Патрикеев продолжает бороться с преступностью. Отсидев в ... 8.8 10 8
Торрент: Зарегистрирован [2020-01-10 18:00] · скачан: 110 раз
Статус: √ проверено
Размер: 37.38 GB
Как cкачать? Как скачать Зелёный фургон. Совсем другая история через торрент | qTorrent

% Раздел Тема Автор DL S | L
Наши сериалы [ 15.83 GB ] Зелёный фургон. Совсем другая история / Сезон: 1 / Серии: 1-16 из 16 [2020 WEB-DL 720p] bober100 Скачать
2 | 0
Наши сериалы [ 29.37 GB ] Зелёный фургон. Совсем другая история / Сезон: 1 / Серии: 1-16 из 16 [2020 WEB-DL 1080p] bober100 Скачать
1 | 0
Наши сериалы [ 20.97 GB ] Зелёный фургон. Совсем другая история / Сезон: 1 / Серии: 1-16 из 16 [2020 HDTVRip 720p] bober100 Скачать
1 | 0
Наши сериалы [ 12.45 GB ] Зелёный фургон. Совсем другая история / Сезон: 1 / Серии: 1-16 из 16 [2020 HDTVRip-AVC] bober100 Скачать
1 | 0
Наши сериалы [ 10.23 GB ] Зелёный фургон. Совсем другая история / Сезон: 1 / Серии: 1-16 из 16 [2020 HDTVRip] bober100 Скачать
1 | 0
Наши сериалы [ 10.61 GB ] Зелёный фургон. Совсем другая история / Сезон: 1 / Серии: 1-16 из 16 [2020 SATRip] bober100 Скачать
1 | 0


Последний раз редактировалось: bober100 (2020-08-03 03:17), всего редактировалось 1 раз

28-11-2019 20:33  

Отключить всю рекламу на сайте

10-01-2020 18:34 Зелёный фургон. Совсем другая история Скачать торрент  

Отличный фильм.Смотреть можно и радует что начали вспоминать о забытом.Харатьян правда порит чушь он не вписываеться в роль.А так под пивасик смотреть приятно.Спасибо за раздачу своевременнуюpb.wtf



    Дорогой пользователь! Огромная просьба, поблагодарите релизера, оцените раздачу и оставьте свои комментарий, если Вы скачали Зелёный фургон. Совсем другая история через торрент бесплатно! Внесите свою лепту в развитие PiratBit!
    Комментировать посты могут только пользователи прошедшие не сложную регистрацию
    Показать сообщения:    

    Зелёный фургон. Совсем другая история через торрент
    Скачать бесплатно Зелёный фургон. Совсем другая история
    Зелёный фургон. Совсем другая история скачать торрент
    Зелёный фургон. Совсем другая история смотреть онлайн
    Cкачать фильм Зелёный фургон. Совсем другая история бесплатно
    Зелёный фургон. Совсем другая история скачать торрент в хорошем качестве
    Зелёный фургон. Совсем другая история смотреть онлайн бесплатно в хорошем качестве


    Вы не можете начинать темы
    Вы не можете отвечать на сообщения
    Вы не можете редактировать свои сообщения
    Вы не можете удалять свои сообщения
    Вы не можете голосовать в опросах
    Вы не можете прикреплять файлы к сообщениям
    Вы можете скачивать файлы