Всегда рабочее зеркало без VPN и Proxy просто перед .vidak.icu напиши любое слово или цифру, Пример http://2t1u.vidak.icu

Лицензия

MVO

1 сезон

1

1 сезон

iTunes

1 сезон

13

1 сезон

Deluxe

pack

Рекомендуем

Repack

30

ВАЖНО

RePack

MK11

RePack

jed

RePack

fifa19

RePack

RDR2

RePack

NEED FOR SPEED™ PAYBACK

Кинопоиск HD

6 сезон

 Острые козырьки 6 сезон

Все сериалы

все сериалы на PB.wtf

RePack

FAR CRY 5
  
Magnet ссылка

Гемини / Gemini Man (Энг Ли) [2019, фантастика, боевик, триллер, драма, UHD BDRemux 2160p, (60 fps)] DUB [Лицензия] pb.wtf

Гемини через торрент pb.wtf

Раздают: 1 [ 106 KB/s ]
Размер: 70.75 GB | Добавлен: 2 года 6 мес. назад | Торрент скачан:57 раз
Смотреть онлайн Гемини | Скачать    Ребята, помогите собрать деньги на оплату серверов!!!

03-01-2020 19:12 Гемини Скачать торрент  

Гемини | Gemini Man
Год выпуска: 2019
Страна: Китай, США
Студия: Skydance Media, Jerry Bruckheimer Films, Fosun Group Forever Pictures
Жанр: фантастика, боевик, триллер, драма
Продолжительность: 01:57:00
Перевод: Дублированный | Лицензия
Субтитры: Русские (Forced, Full), английские

Режиссер: Энг Ли

rating

В ролях: Уилл Смит, Мэри Элизабет Уинстэд, Клайв Оуэн, Бенедикт Вонг, Дуглас Ходж, Теодора Вулли, Ральф Браун, Линда Эмонд, Андреа Суч, Илья Волох

Описание: Генри Броган, первоклассный киллер, становится мишенью таинственного оперативника, который, кажется, знает каждый его шаг наперед...

Качество: UHD BDRemux 2160p | 60 fps
Формат: MKV

Видео: 3840x2160 at 59.940 fps, MPEG-H HEVC HDR Video, 80973 kbps avg
Аудио #01: 48 kHz, AC3, 5.1, 640 Kbps | Дублированный | RUS |
Аудио #02: 48 kHz, TrueHD, 7.1, 4204 Kbps | Оригинал | ENG |
Аудио #03: 48 kHz, AC3, 5.1, 640 Kbps | Оригинал | ENG |
скриншот  скриншот  скриншот  скриншот  скриншот  

General
Unique ID : 3304909299926926301661235302254511214 (0x27C809BDF49C0B4D5255D7CB528046E)
Complete name : E:Video111Gemini.Man.2019.Lic.BDREMUX.2160p.HDR.seleZen.mkv
Format : Matroska
Format version : Version 4
File size : 70.7 GiB
Duration : 1 h 57 min
Overall bit rate mode : Variable
Overall bit rate : 86.5 Mb/s
Movie name : Gemini Man 2019 from селезень
Encoded date : UTC 2020-01-31 22:56:42
Writing application : mkvmerge v40.0.0 ('Old Town Road + Pony') 64-bit
Writing library : libebml v1.3.9 + libmatroska v1.5.2

Video
ID : 1
Format : HEVC
Format/Info : High Efficiency Video Coding
Format profile : Main [email protected]@High
HDR format : SMPTE ST 2086, HDR10 compatible
Codec ID : V_MPEGH/ISO/HEVC
Duration : 1 h 57 min
Bit rate : 81.0 Mb/s
Width : 3 840 pixels
Height : 2 160 pixels
Display aspect ratio : 16:9
Frame rate mode : Constant
Frame rate : 59.940 (60000/1001) FPS
Color space : YUV
Chroma subsampling : 4:2:0 (Type 2)
Bit depth : 10 bits
Bits/(Pixel*Frame) : 0.163
Stream size : 66.2 GiB (94%)
Language : English
Default : Yes
Forced : No
Color range : Limited
Color primaries : BT.2020
Transfer characteristics : PQ
Matrix coefficients : BT.2020 non-constant
Mastering display color pri : Display P3
Mastering display luminance : min: 0.0010 cd/m2, max: 1000 cd/m2
Maximum Content Light Level : 5180 cd/m2
Maximum Frame-Average Light : 1577 cd/m2

Audio #1
ID : 2
Format : AC-3
Format/Info : Audio Coding 3
Commercial name : Dolby Digital
Codec ID : A_AC3
Duration : 1 h 57 min
Bit rate mode : Constant
Bit rate : 640 kb/s
Channel(s) : 6 channels
Channel layout : L R C LFE Ls Rs
Sampling rate : 48.0 kHz
Frame rate : 31.250 FPS (1536 SPF)
Compression mode : Lossy
Stream size : 536 MiB (1%)
Title : Dub [License]
Language : Russian
Service kind : Complete Main
Default : Yes
Forced : Yes

Audio #2
ID : 3
Format : MLP FBA 16-ch
Format/Info : Meridian Lossless Packing FBA with 16-channel presentation
Commercial name : Dolby TrueHD with Dolby Atmos
Codec ID : A_TRUEHD
Duration : 1 h 57 min
Bit rate mode : Variable
Bit rate : 4 204 kb/s
Maximum bit rate : 7 944 kb/s
Channel(s) : 8 channels
Channel layout : L R C LFE Ls Rs Lb Rb
Sampling rate : 48.0 kHz
Frame rate : 1 200.000 FPS (40 SPF)
Compression mode : Lossless
Stream size : 3.44 GiB (5%)
Title : Original
Language : English
Default : No
Forced : No
Number of dynamic objects : 11
Bed channel count : 1 channel
Bed channel configuration : LFE

Audio #3
ID : 4
Format : AC-3
Format/Info : Audio Coding 3
Commercial name : Dolby Digital
Codec ID : A_AC3
Duration : 1 h 57 min
Bit rate mode : Constant
Bit rate : 640 kb/s
Channel(s) : 6 channels
Channel layout : L R C LFE Ls Rs
Sampling rate : 48.0 kHz
Frame rate : 31.250 FPS (1536 SPF)
Compression mode : Lossy
Stream size : 536 MiB (1%)
Language : English
Service kind : Complete Main
Default : No
Forced : No

Text #1
ID : 5
Format : UTF-8
Codec ID : S_TEXT/UTF8
Codec ID/Info : UTF-8 Plain Text
Duration : 1 h 55 min
Bit rate : 0 b/s
Count of elements : 16
Stream size : 581 Bytes (0%)
Title : Forced
Language : Russian
Default : Yes
Forced : Yes

Text #2
ID : 6
Format : UTF-8
Codec ID : S_TEXT/UTF8
Codec ID/Info : UTF-8 Plain Text
Duration : 1 h 55 min
Bit rate : 69 b/s
Count of elements : 1336
Stream size : 59.1 KiB (0%)
Title : Full
Language : Russian
Default : No
Forced : No

Text #3
ID : 7
Format : UTF-8
Codec ID : S_TEXT/UTF8
Codec ID/Info : UTF-8 Plain Text
Duration : 1 h 45 min
Bit rate : 49 b/s
Count of elements : 1356
Stream size : 38.5 KiB (0%)
Title : Full
Language : English
Default : No
Forced : No

Menu
00:00:00.000 : en:Глава 01
00:07:21.641 : en:Глава 02
00:15:31.681 : en:Глава 03
00:18:13.109 : en:Глава 04
00:24:39.495 : en:Глава 05
00:30:59.408 : en:Глава 06
00:34:09.431 : en:Глава 07
00:42:40.308 : en:Глава 08
00:50:24.872 : en:Глава 09
00:56:45.819 : en:Глава 10
01:03:30.306 : en:Глава 11
01:08:13.172 : en:Глава 12
01:16:45.901 : en:Глава 13
01:24:43.979 : en:Глава 14
01:30:04.716 : en:Глава 15
01:34:00.919 : en:Глава 16
01:42:14.462 : en:Глава 17
01:47:07.588 : en:Глава 18

pb.wtf



Скачать Гемини через торрент https://b.radikal.ru/b24/2001/63/bd8e377daf8e.png Скачать, смотреть онлайн Гемини бесплантно в хорошем качестве Описание: Генри Броган, первоклассный киллер, становится мишенью таинственного оперативника, который, кажется, знает каждый его шаг ... 9 10 9
Торрент: Зарегистрирован [2020-02-01 03:46] · скачан: 57 раз
Статус: √ проверено
Размер: 70.75 GB
Как cкачать? Как скачать Гемини через торрент | UTorrent

% Раздел Тема Автор DL S | L
Ultra HD (UHD: 2K, 4K, 8K) — видео сверхвысокой чёткости [ 21.94 GB ] Гемини / Gemini Man [2019 UHD BDRip 2160p ] bober100 Скачать
1 | 0
3D Фильмы [ 9.49 GB ] Гемини 3Д / Gemini Man 3D [2019 BDRip 1080p ] DUB [] bober100 Скачать
1 | 0
Фильмы (Blu-ray, BD-Remux, HDDVD) [ 38.14 GB ] Гемини / Gemini Man [2019 BD Remux 1080p ] DUB [] bober100 Скачать
1 | 0
Фильмы 2019-2020 [DVDrip, WEB-DLRip, HDrip] (DUB, MVO) [ 747 MB ] Гемини / Gemini Man [2019 HDRip] DUB [] bober100 Скачать
1 | 0
Фильмы (HD 720p, 1080p) (48-60 fps) [ 10.85 GB ] Гемини / Gemini Man [2019 UHD BDRip 1080p ] DUB [] bober100 Скачать
2 | 0
Фильмы (Blu-ray, BD-Remux, HDDVD) [ 45.33 GB ] Гемини / Gemini Man [2019 Blu-ray EUR 1080p] DUB [] bober100 Скачать
1 | 0
Фильмы [HD 720p, 1080p] (Хороший звук DUB, MVO) [ 5.95 GB ] Гемини / Gemini Man [2019 BDRip 720p] DUB [] bober100 Скачать
1 | 0

28-11-2019 20:33  

Отключить вcю реклaмy на сайте

    Дорогой пользователь! Огромная просьба, поблагодарите релизера, оцените раздачу и оставьте свои комментарий, если Вы скачали Гемини через торрент бесплатно!
    Комментировать посты могут только пользователи прошедшие не сложную регистрацию
    Показать сообщения:    

    Гемини через торрент
    Скачать бесплатно Гемини
    Гемини скачать торрент
    Гемини смотреть онлайн
    Cкачать фильм Гемини бесплатно
    Гемини скачать торрент в хорошем качестве
    Гемини смотреть онлайн бесплатно в хорошем качестве


    Вы не можете начинать темы
    Вы не можете отвечать на сообщения
    Вы не можете редактировать свои сообщения
    Вы не можете удалять свои сообщения
    Вы не можете голосовать в опросах
    Вы не можете прикреплять файлы к сообщениям
    Вы можете скачивать файлы