Ссылка на приватное зеркало нашего сайта всего за 1$. Внимание количество ограничено!!!

2 сезон

iTunes

1 сезон

1

iTunes

iTunes

iTunes

1 сезон

RePack

30

ИГРА 18+

pack

ВАЖНО

!!Акция!!

Alien_RageХит недели

RePack

MK11
pack

Забери бонус

RePack

jed

!!Акция!!

Alien_Rage

RePack

fifa19

RePack

Assassins Creed: Odyssey

RePack

NEED FOR SPEED™ PAYBACK

4 сезон

9 сезон

Бесстыжие 9 сезон

Все сериалы

все сериалы на PB.wtf

RePack

FAR CRY 5
  

Старая гвардия. Прощальная вечеринка / Сезон: 2 / Серии: 1-4 из 4 (Ашот Кещян) [2020, Детектив, криминал, SATRip] pb.wtf

Старая гвардия. Прощальная вечеринка через торрент pb.wtf

Размер: 2.3 GB | Добавлен: 9 мес. назад | Торрент скачан:76 раз
Скачать  

04-01-2020 09:51 Старая гвардия. Прощальная вечеринка Скачать торрент  

Старая гвардия. Прощальная вечеринка
Год выпуска: 2020
Страна: Россия
Жанр: Детектив, криминал
Продолжительность: ~ 00:45:00
Субтитры: отсутствуют

Режиссер: Ашот Кещян



В ролях: Катерина Шпица, Вадим Андреев, Анатолий Лобоцкий, Алёна Хмельницкая, Валерия Кристиансен, Андрей Москвичёв, Вера Воронкова, Иван Прилль, Нил Кропалов, Игорь Захаров (II), Николай Лунин (II), Альберт Бартош

Описание: Шумная пирушка по случаю встречи бывших однокурсников прерывается страшной находкой: один из гостей случайно обнаруживает на дачном участке тело девушки, много лет пролежавшее в земле. Капитан Вера Ершова и ее подчиненные, бывалый оперативник Бобрыкин и гениальный криминалист Сапронов, берутся за расследование старого дела. Под подозрение подпадают все участники вечеринки, которые, как выясняется, хорошо знали жертву и были последними, кто видел ее живой. У каждого из них имелся мотив и возможность убить девушку. Но пока Вера, Бобрыкин и Сапронов вычисляют преступника, таинственный убийца открывает охоту на самих гостей…

Качество: SATRip
Формат: AVI

Видео: XviD, 720x400, ~ 1700 Кбит/с, 0.235 bit/pixel
Аудио: МР3, 48,0 КГц, 2 ch, 192 Кбит/с
скриншот  скриншот  скриншот  скриншот  скриншот  

Общее
Полное имя : D:\Старая.гвардия.S02.Прощальная.вечеринка.2020.XviD.SATRip.Kinozal-Reliz.7turza\01.Старая.гвардия.S02.Прощальная.вечеринка.Kinozal-Reliz.7turza.avi
Формат : AVI
Формат/Информация : Audio Video Interleave
Размер файла : 606 Мбайт
Продолжительность : 44 м. 39 с.
Общий поток : 1898 Кбит/сек
Название фильма : S02 E01 # from 7turza #
Программа кодирования : Lavf58.29.100

Видео
Идентификатор : 0
Формат : MPEG-4 Visual
Профиль формата : Advanced Simple@L5
Настройки формата : BVOP1
Параметр BVOP формата : 1
Параметр QPel формата : Нет
Параметр GMC формата : Без точки перехода
Параметр матрицы формата : Default (H.263)
Идентификатор кодека : XVID
Идентификатор кодека/Подсказка : XviD
Продолжительность : 44 м. 39 с.
Битрейт : 1693 Кбит/сек
Ширина : 720 пикселей
Высота : 400 пикселей
Соотношение сторон : 1,85:1
Частота кадров : 25,000 кадров/сек
Цветовое пространство : YUV
Субдискретизация насыщенности : 4:2:0
Битовая глубина : 8 бит
Тип развёртки : Прогрессивная
Бит/(Пиксели*Кадры) : 0.235
Размер потока : 541 Мбайт (89%)
Библиотека кодирования : XviD 67

Аудио
Идентификатор : 1
Формат : MPEG Audio
Версия формата : Version 1
Профиль формата : Layer 3
Настройки формата : Joint stereo / MS Stereo
Идентификатор кодека : 55
Идентификатор кодека/Подсказка : MP3
Продолжительность : 44 м. 39 с.
Вид битрейта : Постоянный
Битрейт : 192 Кбит/сек
Каналы : 2 канала
Частота : 48,0 КГц
Размер потока : 61,3 Мбайт (10%)
Выравнивание : Соединение по промежуткам
Продолжительность промежутка : 24 мс. (0,60 видеокадр)
Библиотека кодирования : LAME¶Ü“

Внимание! Раздача ведётся путём добавления новых серий; при каждом добавлении создаётся новый торрент.
Чтобы начать докачку новой серии, пользователям необходимо сделать следующее:
1. Остановить скачивание;
2. Удалить старый торрент у себя из клиента (старые серии удалять не надо);
3. Скачать новый торрент и запустить его у себя в клиенте вместо старого, при этом указать клиенту путь в старую папку куда и должно происходить скачивание новых серий. Ваш клиент при этом должен произвести хеширование (проверку) старой папки и будет докачивать только те серии, которых у вас ещё нет. Старые серии при этом не удаляются, а продолжают раздаваться! Eсли вы уже удалили старые серии, то предотвратить повторную закачку старых серий можно, отжав галочку в соответствующих местах при запуске нового торрента.
pb.wtf



Скачать Старая гвардия. Прощальная вечеринка через торрент https://b.radikal.ru/b15/2001/b3/7e7b2be51778.jpg Скачать фильм Старая гвардия. Прощальная вечеринка через торрент бесплантно в хорошем качестве Описание: Шумная пирушка по случаю встречи бывших однокурсников прерывается страшной находкой: один из гостей случайно обнаруживает на ... 8.3 10 7
Торрент: Зарегистрирован [2020-01-04 11:42] · скачан: 76 раз
Статус: √ проверено
Размер: 2.3 GB
Как cкачать? Как скачать Старая гвардия. Прощальная вечеринка через торрент | qTorrent

% Раздел Тема Автор DL S | L
Наши сериалы [ 2.24 GB ] Старая гвардия. Прощальная вечеринка / Сезон: 2 / Серии: 1-4 из 4 [2020 WEB-DLRip-AVC] bober100 Скачать
1 | 0
Наши сериалы [ 2.25 GB ] Старая гвардия. Прощальная вечеринка / Сезон: 2 / Серии: 1-4 из 4 [2020 WEB-DLRip] bober100 Скачать
1 | 0

28-11-2019 20:33  

Отключить всю рекламу на сайте

    Дорогой пользователь! Огромная просьба, поблагодарите релизера, оцените раздачу и оставьте свои комментарий, если Вы скачали Старая гвардия. Прощальная вечеринка через торрент бесплатно! Внесите свою лепту в развитие PiratBit!
    Комментировать посты могут только пользователи прошедшие не сложную регистрацию
    Показать сообщения:    

    Старая гвардия. Прощальная вечеринка через торрент
    Скачать бесплатно Старая гвардия. Прощальная вечеринка
    Старая гвардия. Прощальная вечеринка скачать торрент
    Старая гвардия. Прощальная вечеринка смотреть онлайн
    Cкачать фильм Старая гвардия. Прощальная вечеринка бесплатно
    Старая гвардия. Прощальная вечеринка скачать торрент в хорошем качестве
    Старая гвардия. Прощальная вечеринка смотреть онлайн бесплатно в хорошем качестве


    Вы не можете начинать темы
    Вы не можете отвечать на сообщения
    Вы не можете редактировать свои сообщения
    Вы не можете удалять свои сообщения
    Вы не можете голосовать в опросах
    Вы не можете прикреплять файлы к сообщениям
    Вы можете скачивать файлы