Всегда рабочее зеркало без VPN и Proxy просто перед .vidak.icu напиши любое слово или цифру, Пример http://j8sj.vidak.icu

MVO

2 сезон

2 сезон

1

1 сезон

iTunes

2 сезон

13

1 сезон

Распродажа

pack

Рекомендуем

Пиратка

30

ВАЖНО

RePack

MK11

RePack

jed

RePack

fifa19

RePack

RDR2

RePack

NEED FOR SPEED™ PAYBACK

Кинопоиск HD

6 сезон

 Острые козырьки 6 сезон

Все сериалы

все сериалы на PB.wtf

RePack

FAR CRY 5

Anonymous, нам критически не хватает 5601 руб. на оплату серверов и переферии за Апрель, помоги нам пожалуйста, вся надежда только на тебя. В благодарность мы отключим тебе всю рекламу на сайте!

×
  
Magnet ссылка

Смертельная Битва 2: Уничтожение / Mortal Kombat 2: Annihilation (Джон Р. Леонетти) [1997, фантастика, фэнтези, боевик, триллер, приключения, HDRip-AVC] [MVO] (ОРТ) pb.wtf

Смертельная Битва 2: Уничтожение через торрент pb.wtf

Размер: 1.42 GB | Добавлен: 2 года 4 мес. назад | Торрент скачан:33 раза
Смотреть онлайн Смертельная Битва 2: Уничтожение | Скачать    Ребята, помогите собрать деньги на оплату серверов!!!

04-01-2020 10:29 Смертельная Битва 2: Уничтожение Скачать торрент  

Смертельная Битва 2: Уничтожение / Mortal Kombat 2: Annihilation

Страна: США
Жанр: фантастика, фэнтези, боевик, триллер, приключения
Год выпуска: 1997
Продолжительность: 01:34:45
Перевод: Профессиональный (многоголосый закадровый) ОРТ
Субтитры: русские, английские
Режиссер: Джон Р. Леонетти / John R. Leonetti
В ролях: Робин Шоу (Liu Kang), Талиса Сото (Kitana), Джеймс Римар (Rayden), Сандра Хесс (Sonya Blade), Линн ’Красный’ Уильямс (Jax), Брайан Томпсон (Shao-Kahn), Рейнер Шёне (Shinnok), Мусетта Вандер (Sindel), Ирина Пантаева (Jade), Дерон Макби (Motaro), Марджин Холден (Sheeva)
Описание: Император Внеземелья Шао Кан прибывает на Землю, чтобы лично предупредить ее жителей о своих намерениях: уничтожить мир земной, и сделать все это за семь библейских дней. В числе его подручных — роботы, обладающие инстинктами и приемами ниндзя, четырехрукая дева Шива и звероподобный человек Мотарро. Но им противостоят герои Земли во главе с самим лордом Рейденом… Ожидается фейерверк единоборств.

Сэмпл: https://yadi.sk/i/nfazHGcqXQ-1cw
Качество видео: HDRip-AVC
Формат видео: MKV
Видео: AVC, 854x480 (16:9), 23.976 fps, 1695 kbps, 0.172 bit/pixel
Аудио 1: 48 kHz, AC3, 2 ch, 224 kbps (ОРТ)
Аудио 2: 48 kHz, AC3, 2 ch, 224 kbps (Eng)
Формат субтитров: softsub (SRT)
General
Unique ID : 235100085298050226415575183674818695354 (0xB0DEA121B12E3E02A12DEC1AE08810BA)
Complete name : D:\Archive_Dec_2013\Archieve\AVI+MKV\Smertelnaya.bitva.2.Unichtozhenie.1997.HDRip-AVC (ОРТ).mkv
Format : Matroska
Format version : Version 2
File size : 1.42 GiB
Duration : 1 h 34 min
Overall bit rate : 2 143 kb/s
Encoded date : UTC 2019-12-31 13:58:46
Writing application : mkvmerge v4.1.1 ('Bouncin' Back') сборка от Jul 3 2010 22:54:08
Writing library : libebml v1.0.0 + libmatroska v1.0.0

Video
ID : 1
Format : AVC
Format/Info : Advanced Video Codec
Format profile : High@L4.1
Format settings : CABAC / 8 Ref Frames
Format settings, CABAC : Yes
Format settings, Reference : 8 frames
Codec ID : V_MPEG4/ISO/AVC
Duration : 1 h 34 min
Bit rate : 1 695 kb/s
Width : 854 pixels
Height : 480 pixels
Display aspect ratio : 16:9
Frame rate mode : Constant
Frame rate : 23.976 (24000/1001) FPS
Color space : YUV
Chroma subsampling : 4:2:0
Bit depth : 8 bits
Scan type : Progressive
Bits/(Pixel*Frame) : 0.172
Stream size : 1.09 GiB (77%)
Writing library : x264 core 148 r2694M 3b70645
Encoding settings : cabac=1 / ref=8 / deblock=1:0:0 / analyse=0x3:0x133 / me=umh / subme=9 / psy=1 / psy_rd=1.05:0.10 / mixed_ref=1 / me_range=32 / chroma_me=1 / trellis=2 / 8x8dct=1 / cqm=0 / deadzone=21,11 / fast_pskip=0 / chroma_qp_offset=-3 / threads=5 / lookahead_threads=1 / sliced_threads=0 / nr=0 / decimate=1 / interlaced=0 / bluray_compat=0 / constrained_intra=0 / bframes=7 / b_pyramid=2 / b_adapt=2 / b_bias=0 / direct=3 / weightb=1 / open_gop=0 / weightp=2 / keyint=230 / keyint_min=23 / scenecut=40 / intra_refresh=0 / rc_lookahead=40 / rc=2pass / mbtree=1 / bitrate=1695 / ratetol=1.0 / qcomp=0.70 / qpmin=3 / qpmax=69 / qpstep=4 / cplxblur=20.0 / qblur=0.5 / ip_ratio=1.40 / aq=2:1.00
Language : English
Default : Yes
Forced : No

Audio #1
ID : 2
Format : AC-3
Format/Info : Audio Coding 3
Commercial name : Dolby Digital
Muxing mode : Header stripping
Codec ID : A_AC3
Duration : 1 h 34 min
Bit rate mode : Constant
Bit rate : 224 kb/s
Channel(s) : 2 channels
Channel layout : L R
Sampling rate : 48.0 kHz
Frame rate : 31.250 FPS (1536 SPF)
Bit depth : 16 bits
Compression mode : Lossy
Stream size : 152 MiB (10%)
Title : Профессиональный, Многоголосый Закадровый (ОРТ)
Language : Russian
Service kind : Complete Main
Default : Yes
Forced : No

Audio #2
ID : 3
Format : AC-3
Format/Info : Audio Coding 3
Commercial name : Dolby Digital
Muxing mode : Header stripping
Codec ID : A_AC3
Duration : 1 h 34 min
Bit rate mode : Constant
Bit rate : 224 kb/s
Channel(s) : 2 channels
Channel layout : L R
Sampling rate : 48.0 kHz
Frame rate : 31.250 FPS (1536 SPF)
Bit depth : 16 bits
Compression mode : Lossy
Stream size : 152 MiB (10%)
Title : Оригинал
Language : English
Service kind : Complete Main
Default : No
Forced : No

Text #1
ID : 4
Format : UTF-8
Codec ID : S_TEXT/UTF8
Codec ID/Info : UTF-8 Plain Text
Language : Russian
Default : No
Forced : No

Text #2
ID : 5
Format : UTF-8
Codec ID : S_TEXT/UTF8
Codec ID/Info : UTF-8 Plain Text
Language : English
Default : No
Forced : No

Menu
00:00:00.000 : :Kahn Opens Portal
00:07:33.452 : :The Velospheres
00:11:03.621 : :Kahn and Shinnok
00:13:02.781 : :Kitana's Abduction
00:20:13.462 : :Sonya Rescues Jax
00:29:48.703 : :Animality
00:37:54.397 : :Caged Kitana
00:39:40.085 : :Dragon Desert
00:43:36.071 : :Eternal Palace
00:45:37.901 : :Into Outworld
00:52:29.646 : :Royal Temple
00:55:06.844 : :Kahn's Army
00:55:56.268 : :Kitana's Rescue
00:59:29.816 : :Jades Betrayal
01:06:33.698 : :Final Battle
01:20:55.767 : :Home Again
01:23:21.997 : :End Creditsy
скриншот  скриншот  скриншот  
pb.wtf



Скачать Смертельная Битва 2: Уничтожение через торрент https://i111.fastpic.ru/big/2019/1231/95/2a48cc92bf8eda09a5e4548f87150795.jpg Скачать, смотреть онлайн Смертельная Битва 2: Уничтожение бесплантно в хорошем качестве Описание: Император Внеземелья Шао Кан прибывает на Землю, чтобы лично предупредить ее жителей о своих намерениях: уничтожить мир земной, и ... 10 10 2
Торрент: Зарегистрирован [2020-01-04 10:29] · скачан: 33 раз
Статус: √ проверено
Размер: 1.42 GB
Как cкачать? Как скачать Смертельная Битва 2: Уничтожение через торрент | UTorrent

28-11-2019 20:33  

Отключить всю рекламу на сайте

    Дорогой пользователь! Огромная просьба, поблагодарите релизера, оцените раздачу и оставьте свои комментарий, если Вы скачали Смертельная Битва 2: Уничтожение через торрент бесплатно!
    Комментировать посты могут только пользователи прошедшие не сложную регистрацию
    Показать сообщения:    

    Смертельная Битва 2: Уничтожение через торрент
    Скачать бесплатно Смертельная Битва 2: Уничтожение
    Смертельная Битва 2: Уничтожение скачать торрент
    Смертельная Битва 2: Уничтожение смотреть онлайн
    Cкачать фильм Смертельная Битва 2: Уничтожение бесплатно
    Смертельная Битва 2: Уничтожение скачать торрент в хорошем качестве
    Смертельная Битва 2: Уничтожение смотреть онлайн бесплатно в хорошем качестве


    Вы не можете начинать темы
    Вы не можете отвечать на сообщения
    Вы не можете редактировать свои сообщения
    Вы не можете удалять свои сообщения
    Вы не можете голосовать в опросах
    Вы не можете прикреплять файлы к сообщениям
    Вы можете скачивать файлы