2 сезон

iTunes

WEBRip

1

2 сезон

iTunes

1 сезон

1 сезон

RePack

30

Новинка

ВАЖНО

ИГРА 18+

pack

RePack

MK11
pack

Легкие деньги

RePack

jed

RePack

fifa19

RePack

RDR2

RePack

NEED FOR SPEED™ PAYBACK

4 сезон

9 сезон

Бесстыжие 9 сезон

Все сериалы

все сериалы на PB.wtf

RePack

FAR CRY 5

Anonymous, добрый день, мы не успеваем собрать деньги на оплату серверов за февраль, помогите нам пожалуйста в это трудное время. В качестве благодарности мы отключим Вам всю рекламу на сайте (укажите свой ник в строку Ваше имя)!

×
  
Magnet ссылка

Фабрика грёз / Traumfabrik (Мартин Шрейер) [2019, драма, мелодрама, комедия, WEB-DL 1080p] DUB [iTunes] pb.wtf

Фабрика грёз через торрент pb.wtf

Размер: 3.54 GB | Добавлен: 1 год назад | Торрент скачан:45 раз
Скачать  

04-01-2020 17:11 Фабрика грёз Скачать торрент  

Фабрика грёз | Traumfabrik
Год выпуска: 2019
Страна: Германия
Жанр: драма, мелодрама, комедия
Продолжительность: 01:43:18
Перевод: Дублированный | iTunes
Субтитры: отсутствуют

Режиссер: Мартин Шрейер

rating

В ролях: Эмилия Шуле, Деннис Моен, Свенья Юнг, Ленн Кудрявицки, Кен Дукен, Анатоль Таубман, Хайнер Лаутербах, Николай Кински, Милтон Уэлш, Аксель Шрайбер

Описание: На что ты готов ради любви? Что, если все обстоятельства против тебя, и шансов вернуть свою возлюбленную нет? Простому парню Эмилю, влюблённому во французскую танцовщицу по имени Милу, придётся придумать и реализовать фантастический план, который возможен только на «Фабрике Грёз» — киностудии, где Эмиль снимет кино, в котором снимется Милу.

Качество: WEB-DL 1080p
Формат: MKV

Видео: MPEG-4 AVC, 4521 Кбит/с, 1920x806
Аудио: Русский (AC3, 6 ch, 384 Кбит/с)
скриншот  скриншот  скриншот  скриншот  

Общее
Уникальный идентификатор : 173720505102391737901527682999383960751 (0x82B15A2E9181C476A554F61408DF2CAF)
Полное имя : D:\Fabrik.grez.2019.WEB-DL.1080p.ELEKTRI4KA.UNIONGANG.mkv
Формат : Matroska
Версия формата : Version 4 / Version 2
Размер файла : 3,54 Гбайт
Продолжительность : 1 ч. 43 м.
Общий поток : 4907 Кбит/сек
Дата кодирования : UTC 2020-02-08 20:36:33
Программа кодирования : mkvmerge v8.3.0 ('Over the Horizon') 64bit
Библиотека кодирования : libebml v1.3.1 + libmatroska v1.4.2

Видео
Идентификатор : 1
Формат : AVC
Формат/Информация : Advanced Video Codec
Профиль формата : High@L4
Параметр CABAC формата : Да
Параметр RefFrames формата : 5 кадров
Идентификатор кодека : V_MPEG4/ISO/AVC
Продолжительность : 1 ч. 43 м.
Битрейт : 4521 Кбит/сек
Ширина : 1920 пикселей
Высота : 806 пикселей
Соотношение сторон : 2,40:1
Режим частоты кадров : Постоянный
Частота кадров : 24,000 кадра/сек
Цветовое пространство : YUV
Субдискретизация насыщенности : 4:2:0
Битовая глубина : 8 бит
Тип развёртки : Прогрессивная
Бит/(Пиксели*Кадры) : 0.119
Размер потока : 3,19 Гбайт (90%)
Заголовок : iTunes (ELEKTRI4KA.UNIONGANG)
Язык : English
Default : Да
Forced : Нет
Цветовой диапазон : Limited
Основные цвета : BT.709
Характеристики трансфера : BT.709
Коэффициенты матрицы : BT.709

Аудио
Идентификатор : 2
Формат : AC-3
Формат/Информация : Audio Coding 3
Расширение режима : CM (complete main)
Параметр Endianness формата : Big
Идентификатор кодека : A_AC3
Продолжительность : 1 ч. 43 м.
Вид битрейта : Постоянный
Битрейт : 384 Кбит/сек
Каналы : 6 каналов
Расположение каналов : Front: L C R, Side: L R, LFE
Частота : 48,0 КГц
Частота кадров : 31,250 кадров/сек (1536 spf)
Метод сжатия : С потерями
Размер потока : 284 Мбайт (8%)
Заголовок : iTunes (ELEKTRI4KA.UNIONGANG)
Язык : Russian
Default : Да
Forced : Нет

Меню
00:00:00.000 : en:Глава 1
00:10:07.958 : en:Глава 2
00:18:05.665 : en:Глава 3
00:25:01.373 : en:Глава 4
00:33:19.498 : en:Глава 5
00:40:54.872 : en:Глава 6
00:48:19.330 : en:Глава 7
00:57:31.121 : en:Глава 8
01:06:49.329 : en:Глава 9
01:16:04.079 : en:Глава 10
01:24:33.995 : en:Глава 11
01:32:24.077 : en:Глава 12

pb.wtf



Скачать Фабрика грёз через торрент https://i3.imageban.ru/out/2020/02/09/338af18dc0611e77043b29a31c4893a7.png Скачать фильм Фабрика грёз через торрент бесплантно в хорошем качестве Описание: На что ты готов ради любви? Что, если все обстоятельства против тебя, и шансов вернуть свою возлюбленную нет? Простому парню ... 10 10 5
Торрент: Зарегистрирован [2020-02-09 10:40] · скачан: 45 раз
Статус: √ проверено
Размер: 3.54 GB
Как cкачать? Как скачать Фабрика грёз через торрент | UTorrent

% Раздел Тема Автор DL S | L
Фильмы (WEB-DL 720p, 1080p) [ 3.18 GB ] Фабрика грёз / Traumfabrik [2019 WEB-DL 720p] bober100 Скачать
1 | 0
T Фильмы (мультфильмы) cо спонсором показа (Новинки AVI/MKV) [ 2.05 GB ] Фабрика грёз / Traumfabrik [2019 HDRip] DUB [Line] bober100 Скачать
1 | 0
Фильмы 2019-2020 [DVDrip, WEB-DLRip, HDrip] (DUB, MVO) [ 1.46 GB ] Фабрика грёз / Traumfabrik [2019 WEB-DLRip] bober100 Скачать
1 | 0

28-11-2019 20:33  

Отключить всю рекламу на сайте

    Дорогой пользователь! Огромная просьба, поблагодарите релизера, оцените раздачу и оставьте свои комментарий, если Вы скачали Фабрика грёз через торрент бесплатно! Внесите свою лепту в развитие PiratBit!
    Комментировать посты могут только пользователи прошедшие не сложную регистрацию
    Показать сообщения:    

    Фабрика грёз через торрент
    Скачать бесплатно Фабрика грёз
    Фабрика грёз скачать торрент
    Фабрика грёз смотреть онлайн
    Cкачать фильм Фабрика грёз бесплатно
    Фабрика грёз скачать торрент в хорошем качестве
    Фабрика грёз смотреть онлайн бесплатно в хорошем качестве


    Вы не можете начинать темы
    Вы не можете отвечать на сообщения
    Вы не можете редактировать свои сообщения
    Вы не можете удалять свои сообщения
    Вы не можете голосовать в опросах
    Вы не можете прикреплять файлы к сообщениям
    Вы можете скачивать файлы