Ссылка на приватное зеркало нашего сайта всего за 1$. Внимание количество ограничено!!!

2 сезон

iTunes

1 сезон

1

iTunes

iTunes

iTunes

1 сезон

RePack

30

ИГРА 18+

pack

ВАЖНО

!!Акция!!

Alien_RageХит недели

RePack

MK11
pack

Забери бонус

RePack

jed

!!Акция!!

Alien_Rage

RePack

fifa19

RePack

Assassins Creed: Odyssey

RePack

NEED FOR SPEED™ PAYBACK

4 сезон

9 сезон

Бесстыжие 9 сезон

Все сериалы

все сериалы на PB.wtf

RePack

FAR CRY 5
  

Старая гвардия. Прощальная вечеринка / Сезон: 2 / Серии: 1-4 из 4 (Ашот Кещян) [2020, Детектив, криминал, WEB-DLRip] pb.wtf

Старая гвардия. Прощальная вечеринка через торрент pb.wtf

Размер: 2.25 GB | Добавлен: 9 мес. назад | Торрент скачан:19 раз
Скачать  

04-01-2020 21:17 Старая гвардия. Прощальная вечеринка Скачать торрент  

Старая гвардия. Прощальная вечеринка
Год выпуска: 2020
Страна: Россия
Жанр: Детектив, криминал
Продолжительность: ~ 00:45:00
Субтитры: отсутствуют

Режиссер: Ашот Кещян



В ролях: Катерина Шпица, Вадим Андреев, Анатолий Лобоцкий, Алёна Хмельницкая, Валерия Кристиансен, Андрей Москвичёв, Вера Воронкова, Иван Прилль, Нил Кропалов, Игорь Захаров (II), Николай Лунин (II), Альберт Бартош

Описание: Шумная пирушка по случаю встречи бывших однокурсников прерывается страшной находкой: один из гостей случайно обнаруживает на дачном участке тело девушки, много лет пролежавшее в земле. Капитан Вера Ершова и ее подчиненные, бывалый оперативник Бобрыкин и гениальный криминалист Сапронов, берутся за расследование старого дела. Под подозрение подпадают все участники вечеринки, которые, как выясняется, хорошо знали жертву и были последними, кто видел ее живой. У каждого из них имелся мотив и возможность убить девушку. Но пока Вера, Бобрыкин и Сапронов вычисляют преступника, таинственный убийца открывает охоту на самих гостей…

Качество: WEB-DLRip
Формат: AVI

Видео: XviD, ~ 1600 Кбит/с, 720х400, 25 кадр/с
Аудио: 48.0 kHz, AC3 Dolby Digital, 2/0 (L,R) ch, ~ 192 kbps
скриншот  скриншот  скриншот  скриншот  

General
Complete name : F:\Старая гвардия.S02.(2020).WEB-DLRip.Files-x\01.Старая гвардия.S02.(2020).WEB-DLRip.by.Серый1779.Files-x.avi
Format : AVI
Format/Info : Audio Video Interleave
File size : 583 MiB
Duration : 45 min 16 s
Overall bit rate : 1 802 kb/s
Writing application : VirtualDubMod 1.5.10.3 | www.virtualdub-fr.org || (build 2550/release)
Writing library : VirtualDubMod build 2550/release

Video
ID : 0
Format : MPEG-4 Visual
Format profile : Advanced Simple@L5
Format settings : BVOP1 / Custom Matrix
Format settings, BVOP : 1
Format settings, QPel : No
Format settings, GMC : No warppoints
Format settings, Matrix : Custom
Codec ID : XVID
Codec ID/Hint : XviD
Duration : 45 min 16 s
Bit rate : 1 600 kb/s
Width : 720 pixels
Height : 400 pixels
Display aspect ratio : 16:9
Frame rate : 25.000 FPS
Color space : YUV
Chroma subsampling : 4:2:0
Bit depth : 8 bits
Scan type : Progressive
Compression mode : Lossy
Bits/(Pixel*Frame) : 0.222
Stream size : 518 MiB (89%)
Writing library : XviD 73

Audio
ID : 1
Format : AC-3
Format/Info : Audio Coding 3
Format settings, Endianness : Big
Codec ID : 2000
Duration : 45 min 16 s
Bit rate mode : Constant
Bit rate : 192 kb/s
Channel(s) : 2 channels
Channel positions : Front: L R
Sampling rate : 48.0 kHz
Frame rate : 31.250 FPS (1536 SPF)
Bit depth : 16 bits
Compression mode : Lossy
Stream size : 62.2 MiB (11%)
Alignment : Split accross interleaves
Interleave, duration : 40 ms (1.00 video frame)
Interleave, preload duration : 500 ms
Service kind : Complete Main

pb.wtf



Скачать Старая гвардия. Прощальная вечеринка через торрент https://b.radikal.ru/b15/2001/b3/7e7b2be51778.jpg Скачать фильм Старая гвардия. Прощальная вечеринка через торрент бесплантно в хорошем качестве Описание: Шумная пирушка по случаю встречи бывших однокурсников прерывается страшной находкой: один из гостей случайно обнаруживает на ... 10 10 3
Торрент: Зарегистрирован [2020-01-05 06:01] · скачан: 19 раз
Статус: √ проверено
Размер: 2.25 GB
Как cкачать? Как скачать Старая гвардия. Прощальная вечеринка через торрент | qTorrent

% Раздел Тема Автор DL S | L
Наши сериалы [ 2.24 GB ] Старая гвардия. Прощальная вечеринка / Сезон: 2 / Серии: 1-4 из 4 [2020 WEB-DLRip-AVC] bober100 Скачать
1 | 0
Наши сериалы [ 2.3 GB ] Старая гвардия. Прощальная вечеринка / Сезон: 2 / Серии: 1-4 из 4 [2020 SATRip] bober100 Скачать
1 | 0

28-11-2019 20:33  

Отключить всю рекламу на сайте

    Дорогой пользователь! Огромная просьба, поблагодарите релизера, оцените раздачу и оставьте свои комментарий, если Вы скачали Старая гвардия. Прощальная вечеринка через торрент бесплатно! Внесите свою лепту в развитие PiratBit!
    Комментировать посты могут только пользователи прошедшие не сложную регистрацию
    Показать сообщения:    

    Старая гвардия. Прощальная вечеринка через торрент
    Скачать бесплатно Старая гвардия. Прощальная вечеринка
    Старая гвардия. Прощальная вечеринка скачать торрент
    Старая гвардия. Прощальная вечеринка смотреть онлайн
    Cкачать фильм Старая гвардия. Прощальная вечеринка бесплатно
    Старая гвардия. Прощальная вечеринка скачать торрент в хорошем качестве
    Старая гвардия. Прощальная вечеринка смотреть онлайн бесплатно в хорошем качестве


    Вы не можете начинать темы
    Вы не можете отвечать на сообщения
    Вы не можете редактировать свои сообщения
    Вы не можете удалять свои сообщения
    Вы не можете голосовать в опросах
    Вы не можете прикреплять файлы к сообщениям
    Вы можете скачивать файлы