2 сезон

iTunes

MVO

1

2 сезон

iTunes

iTunes

1 сезон

RePack

30

Ultimate

ВАЖНО

ИГРА 18+

pack

RePack

MK11
pack

Легкие деньги

RePack

jed

RePack

fifa19

RePack

RDR2

RePack

NEED FOR SPEED™ PAYBACK

4 сезон

9 сезон

Бесстыжие 9 сезон

Все сериалы

все сериалы на PB.wtf

RePack

FAR CRY 5

Anonymous, доброй ночи, мы не успеваем собрать деньги на оплату серверов за декабрь и январь, помогите нам пожалуйста в это трудное время. В качестве благодарности мы отключим Вам всю рекламу на сайте (укажите свой ник в строку Ваше имя)!

×
  
Magnet ссылка

Ты / You / Сезон: 1 / Серии 01-10 из 10 (Маркос Сига, Ли Толанд Кригер, Келли Сайрус) [2018, триллер, драма, криминал, WEBRip 1080p] [MVO] (HDRezka Studio) pb.wtf

Ты через торрент pb.wtf

Размер: 27.65 GB | Добавлен: 1 год назад | Торрент скачан:27 раз
Скачать  

05-01-2020 08:00 Ты Скачать торрент  

Ты / You Информация

Год выхода: 2018
Жанр: триллер, драма, криминал
Страна: США
Продолжительность: ~ 00:50:00
Перевод: Профессиональный (многоголосый закадровый) *HDRezka Studio*
Субтитры: русские (форсированные)

Режиссер: Маркос Сига, Ли Толанд Кригер, Келли Сайрус

В ролях: Пенн Бэджли, Элизабет Лэил, Шэй Митчелл, Лука Падован, Николь Кан, Кэтрин Галлахер, Виктория Картагена, Дэниэл Косгров и др.

О фильме:

На что вы готовы ради любви? Когда успешный менеджер книжного магазина встречает талантливую начинающую писательницу, для него ответ очевиден: абсолютно на все. Используя соцсети, он узнает мельчайшие подробности о жизни девушки, чтобы подобраться к ней как можно ближе. Милая влюбленность перерастает в опасную одержимость. Парень готов тихо и методично устранить любое препятствие на пути к своей цели, даже если это препятствие — человек.

rating


Файл

Качество: WEBRip 1080p
Кодек: MPEG-4 AVC
Видео: MPEG-4 AVC, ~ 8 000 Кбит/с, 1920x1080
Звук: AC-3, 48 KHz, 2 ch, 192 kbps | MVO
скриншот   скриншот   скриншот  
General
Unique ID : 95861825990071295066073886195175465799 (0x481E50ED3A06EC29C939895A2A652347)
Complete name : E:\You.2018.S01.1080p\You.S01E01.WEBRip.1080p.rus.2.0.HDREZKA.STUDIO.mkv
Format : Matroska
Format version : Version 4 / Version 2
File size : 2.80 GiB
Duration : 48mn 14s
Overall bit rate mode : Variable
Overall bit rate : 8 313 Kbps
Encoded date : UTC 2019-12-29 13:52:28
Writing application : mkvmerge v28.2.0 ('The Awakening') 64-bit
Writing library : libebml v1.3.6 + libmatroska v1.4.9

Video
ID : 1
Format : AVC
Format/Info : Advanced Video Codec
Format profile : High@L4.1
Format settings, CABAC : Yes
Format settings, ReFrames : 1 frame
Codec ID : V_MPEG4/ISO/AVC
Duration : 48mn 14s
Bit rate mode : Variable
Bit rate : 7 956 Kbps
Maximum bit rate : 2 000 Kbps
Width : 1 920 pixels
Height : 1 080 pixels
Display aspect ratio : 16:9
Frame rate mode : Constant
Frame rate : 23.976 fps
Color space : YUV
Chroma subsampling : 4:2:0
Bit depth : 8 bits
Scan type : Progressive
Bits/(Pixel*Frame) : 0.160
Stream size : 2.68 GiB (96%)
Default : Yes
Forced : No

Audio
ID : 2
Format : AC-3
Format/Info : Audio Coding 3
Mode extension : CM (complete main)
Format settings, Endianness : Big
Codec ID : A_AC3
Duration : 48mn 14s
Bit rate mode : Constant
Bit rate : 192 Kbps
Channel(s) : 2 channels
Channel positions : Front: L R
Sampling rate : 48.0 KHz
Compression mode : Lossy
Stream size : 66.2 MiB (2%)
Language : Russian
Default : Yes
Forced : No
pb.wtf



Скачать Ты через торрент https://i111.fastpic.ru/big/2020/0105/d0/67840d8162c29a1c039d275b59a51ed0.png Скачать фильм Ты через торрент бесплантно в хорошем качестве О фильме:На что вы готовы ради любви? Когда успешный менеджер книжного магазина встречает талантливую начинающую писательницу, для него ... 10 10 2
Торрент: Зарегистрирован [2020-01-08 09:17] · скачан: 27 раз
Статус: √ проверено
Размер: 27.65 GB
Как cкачать? Как скачать Ты через торрент | UTorrent

% Раздел Тема Автор DL S | L
Зарубежные сериалы [ 151.14 GB ] Ты - воплощение порока / Ты - отстой / You're The Worst / Сезон: 1-5 / Серии: 1-62 из 62 [2014-2019 WEB-DL 1080p] [MVO] killermax2013 Скачать
1 | 1
Зарубежные сериалы [ 19.19 GB ] Ты / You / Сезон: 2 / Серии: 1-10 из 10 [2019 WEB-DL 1080p] DUB [Пифагор / Netflix] bober100 Скачать
1 | 0
Зарубежные сериалы [ 7.18 GB ] Ты боишься темноты? / Are You Afraid of the Dark? / Сезон: 1 / Серии: 1-3 из 3 [2019 WEB-DL 1080p] MVO [TVShows] bober100 Скачать
1 | 0
Зарубежные сериалы [ 9.02 GB ] Ты / You / Сезон: 1 / Серии: 1-10 из 10 [2018 WEBRip 720p] MVO [AlexFilm] bober100 Скачать
1 | 0
Зарубежные сериалы [ 5.17 GB ] Ты / You / Сезон: 1 / Серии: 1-10 из 10 [2018 WEBRip] MVO [AlexFilm] bober100 Скачать
1 | 0
Зарубежные сериалы [ 5.34 GB ] Ты / You / Сезон: 1 / Серии: 1-10 из 10 [2018 WEBRip] MVO [Good People] bober100 Скачать
1 | 0
Зарубежные сериалы [ 9.16 GB ] Ты / You / Сезон: 1 / Серии 01-10 из 10 [2018 WEBRip 720p] [MVO] killermax2013 Скачать
1 | 0


Последний раз редактировалось: killermax2013 (2020-01-08 09:24), всего редактировалось 4 раз(а)

28-11-2019 20:33  

Отключить всю рекламу на сайте

05-01-2020 12:11 Ты Скачать торрент  

Хорошо,что Netflix выкупила права и скоро второй сезон.pb.wtf



05-01-2020 16:41 Ты Скачать торрент  

Kuaikuachu писал(а):

Хорошо,что Netflix выкупила права и скоро второй сезон.

открою вам тайну - 2 сезон давно как вышел и есть на сайте ))pb.wtf



    Дорогой пользователь! Огромная просьба, поблагодарите релизера, оцените раздачу и оставьте свои комментарий, если Вы скачали Ты через торрент бесплатно! Внесите свою лепту в развитие PiratBit!
    Комментировать посты могут только пользователи прошедшие не сложную регистрацию
    Показать сообщения:    

    Ты через торрент
    Скачать бесплатно Ты
    Ты скачать торрент
    Ты смотреть онлайн
    Cкачать фильм Ты бесплатно
    Ты скачать торрент в хорошем качестве
    Ты смотреть онлайн бесплатно в хорошем качестве


    Вы не можете начинать темы
    Вы не можете отвечать на сообщения
    Вы не можете редактировать свои сообщения
    Вы не можете удалять свои сообщения
    Вы не можете голосовать в опросах
    Вы не можете прикреплять файлы к сообщениям
    Вы можете скачивать файлы