Ссылка на приватное зеркало нашего сайта всего за 1$. Внимание количество ограничено!!!

2 сезон

iTunes

1 сезон

1

2 сезон

2 сезон

iTunes

1 сезон

RePack

30

Ultimate

ВАЖНО

ИГРА 18+

pack

RePack

MK11
pack

Забери бонус

RePack

jed

!!Акция!!

Alien_Rage

RePack

fifa19

RePack

Assassins Creed: Odyssey

RePack

NEED FOR SPEED™ PAYBACK

4 сезон

9 сезон

Бесстыжие 9 сезон

Все сериалы

все сериалы на PB.wtf

RePack

FAR CRY 5
  

Ведьмак (сериал 2019 – ...) (Cезон 1: Серии 1 - 8 из 8) / The Witcher (Алик Сахаров, Шарлотта Брандстром, Алекс Гарсиа Лопес) [2019, ужасы, WEBRip HEVC 1080p 10 bit 60 FPS] Дубляж pb.wtf

Ведьмак через торрент pb.wtf

Размер: 15.89 GB | Добавлен: 10 мес. назад | Торрент скачан:103 раза
Скачать  

05-01-2020 13:14 Ведьмак Скачать торрент  

Ведьмак (сериал 2019 – ...) / The Witcher
««The worst monsters are the ones we create»»

Год выпуска: 2019
Страна: США,
Жанр: ужасы,
Продолжительность: 01:01:04
Перевод: Дубляж (Пифагор)
Субтитры: русские (Full).
Режиссер: Алик Сахаров, Шарлотта Брандстром, Алекс Гарсиа Лопес
В ролях:

Генри Кавилл (Geralt of Rivia), Фрейя Аллан (Ciri), Аня Чалотра (Yennefer), Мими Дивени (Fringilla), Имон Фэррен (Cahir), МайАнна Бёринг (Tissaia), Уилсон Раджу-Пухальте (Dara), Адам Леви (Mousesack), Джои Бэти (Jaskier), Ларс Миккельсен (Stregobor), Ройс Пирресон (Istredd), Анна Шаффер (Triss)
Описание:
Ведьмак Геральт, мутант и убийца чудовищ, на своей верной лошади по кличке Плотва путешествует по Континенту. За тугой мешочек чеканных монет этот мужчина избавит вас от всякой настырной нечисти - хоть от чудищ болотных, оборотней и даже заколдованных принцесс. В сельской глуши местную девушку Йеннифэр, которой сильно не повезло с внешностью, зато посчастливилось иметь способности к магии, отец продаёт колдунье в ученицы. А малолетняя наследница королевства Цинтра по имени Цири вынуждена пуститься в бега, когда их страну захватывает империя Нильфгаард. Судьбы этих троих окажутся тесно связаны, но скоро сказка сказывается, да не скоро дело делается.
Мировая премьера: 20 декабря 2019

Качество: WEBRip 1080p Rip by DD2D3
Исходник: WEB-DL 1080p by EniaHD
Формат: MKV
Видео: V_MPEGH/ISO/HEVC, 1920x960 (2.000), 4001 kbps, 60 fps, 0,036 bpp
Аудио: русский / AC3+ / 5.1 / 48 kHz / 768 kbps / ||


General
Unique ID : 239556053922125711901185731506486880230 (0xB438D158C55A12FFA440E7361213A7E6)
Complete name : D:\Ведьмак - The Witcher (сериал 2019 ...) WEB-DLRip - HEVC 1080p 10 bit 60 FPS\Сезон 1\01. Начало конца - The End’s Beginning.mkv
Format : Matroska
Format version : Version 4
File size : 2.04 GiB
Duration : 1 h 1 min
Overall bit rate : 4 773 kb/s
Movie name : Rip by DD2D3
Encoded date : UTC 2020-01-04 18:31:54
Writing application : mkvmerge v10.0.0 ('To Drown In You') 32bit
Writing library : libebml v1.3.4 + libmatroska v1.4.5
Attachments : poster

Video
ID : 1
Format : HEVC
Format/Info : High Efficiency Video Coding
Format profile : Main 10@L4.1@Main
Codec ID : V_MPEGH/ISO/HEVC
Duration : 1 h 1 min
Bit rate : 4 001 kb/s
Width : 1 920 pixels
Height : 960 pixels
Display aspect ratio : 2.000
Frame rate mode : Constant
Frame rate : 60.000 FPS
Color space : YUV
Chroma subsampling : 4:2:0
Bit depth : 10 bits
Bits/(Pixel*Frame) : 0.036
Stream size : 1.71 GiB (84%)
Writing library : x265 2.3+33-0b7d54dbb71a87a0:[Windows][MSVC 1800][64 bit] 10bit: KG7x [x265.ru]
Encoding settings : cpuid=1173503 / frame-threads=2 / numa-pools=4 / wpp / no-pmode / no-pme / no-psnr / no-ssim / log-level=2 / input-csp=1 / input-res=1920x960 / interlace=0 / total-frames=219871 / level-idc=41 / high-tier=1 / uhd-bd=0 / ref=3 / no-allow-non-conformance / no-repeat-headers / annexb / no-aud / no-hrd / info / hash=0 / no-temporal-layers / open-gop / min-keyint=25 / keyint=250 / bframes=4 / b-adapt=2 / b-pyramid / bframe-bias=0 / rc-lookahead=20 / lookahead-slices=6 / scenecut=40 / no-intra-refresh / ctu=64 / min-cu-size=8 / no-rect / no-amp / max-tu-size=32 / tu-inter-depth=1 / tu-intra-depth=1 / limit-tu=0 / rdoq-level=0 / dynamic-rd=0.00 / no-ssim-rd / signhide / no-tskip / nr-intra=0 / nr-inter=0 / no-constrained-intra / strong-intra-smoothing / max-merge=2 / limit-refs=3 / no-limit-modes / me=1 / subme=2 / merange=57 / temporal-mvp / weightp / no-weightb / no-analyze-src-pics / deblock=0:0 / no-sao / no-sao-non-deblock / rd=3 / no-early-skip / no-rskip / no-fast-intra / no-tskip-fast / no-cu-lossless / no-b-intra / rdpenalty=0 / psy-rd=4.00 / psy-rdoq=0.00 / no-rd-refine / analysis-mode=0 / no-lossless / cbqpoffs=0 / crqpoffs=0 / rc=abr / bitrate=4000 / qcomp=0.60 / qpstep=1 / stats-write=0 / stats-read=2 / cplxblur=20.0 / qblur=0.5 / ipratio=1.10 / pbratio=1.00 / aq-mode=0 / aq-strength=0.00 / no-cutree / zone-count=0 / no-strict-cbr / qg-size=64 / rc-grain / qpmax=69 / qpmin=0 / sar=1 / overscan=0 / videoformat=5 / range=0 / colorprim=2 / transfer=2 / colormatrix=2 / chromaloc=0 / display-window=0 / max-cll=0,0 / min-luma=0 / max-luma=1023 / log2-max-poc-lsb=8 / vui-timing-info / vui-hrd-info / slices=1 / opt-qp-pps / opt-ref-list-length-pps / no-multi-pass-opt-rps / scenecut-bias=0.05 / no-opt-cu-delta-qp / no-aq-motion / no-hdr / no-hdr-opt / refine-level=5 / no-limit-sao
Default : Yes
Forced : No

Audio
ID : 2
Format : E-AC-3 JOC
Format/Info : Enhanced AC-3 with Joint Object Coding
Commercial name : Dolby Digital Plus with Dolby Atmos
Codec ID : A_EAC3
Duration : 1 h 1 min
Bit rate mode : Constant
Bit rate : 768 kb/s
Channel(s) : 6 channels
Channel layout : L R C LFE Ls Rs
Sampling rate : 48.0 kHz
Frame rate : 31.250 FPS (1536 SPF)
Compression mode : Lossy
Stream size : 335 MiB (16%)
Title : E-AC3 + Atmos @ 768 kbps - DUB, Пифагор
Language : Russian
Service kind : Complete Main
Default : Yes
Forced : No
Complexity index : 16
Number of dynamic objects : 15
Bed channel count : 1 channel
Bed channel configuration : LFE

Text
ID : 3
Format : UTF-8
Codec ID : S_TEXT/UTF8
Codec ID/Info : UTF-8 Plain Text
Duration : 59 min 54 s
Bit rate : 63 b/s
Count of elements : 624
Stream size : 28.0 KiB (0%)
Title : Full
Language : Russian
Default : No
Forced : No
скриншот  скриншот  скриншот  скриншот  скриншот  скриншот  скриншот  скриншот  скриншот  скриншот  скриншот  скриншот  скриншот  скриншот  скриншот  скриншот  
01. «Начало конца»
02. «Четыре знака»
03. «Предательская луна»
04. «Банкеты, ублюдки и похороны»
05. «Сдерживаемые аппетиты»
06. «Редкие виды»
07. «Перед падением»
08. «Нечто большее»

© Оформление by DD2D3 pb.wtf



Скачать Ведьмак через торрент https://funkyimg.com/i/315AF.jpg Скачать фильм Ведьмак через торрент бесплантно в хорошем качестве Описание: Ведьмак Геральт, мутант и убийца чудовищ, на своей верной лошади по кличке Плотва путешествует по Континенту. За тугой мешочек ... 10 10 2
Торрент: Зарегистрирован [2020-01-05 13:14] · скачан: 103 раз
Статус: √ проверено
Размер: 15.89 GB
Как cкачать? Как скачать Ведьмак через торрент | qTorrent

% Раздел Тема Автор DL S | L
Зарубежные сериалы [ 8.22 GB ] Ведьмак / The Witcher / Сезон: 1 / Серии: 1-8 из 8 [2019 WEB-DLRip] - [Пифагор / Netflix] Twi7ter Скачать
238 | 17

28-11-2019 20:33  

Отключить всю рекламу на сайте

    Дорогой пользователь! Огромная просьба, поблагодарите релизера, оцените раздачу и оставьте свои комментарий, если Вы скачали Ведьмак через торрент бесплатно! Внесите свою лепту в развитие PiratBit!
    Комментировать посты могут только пользователи прошедшие не сложную регистрацию
    Показать сообщения:    

    Ведьмак через торрент
    Скачать бесплатно Ведьмак
    Ведьмак скачать торрент
    Ведьмак смотреть онлайн
    Cкачать фильм Ведьмак бесплатно
    Ведьмак скачать торрент в хорошем качестве
    Ведьмак смотреть онлайн бесплатно в хорошем качестве


    Вы не можете начинать темы
    Вы не можете отвечать на сообщения
    Вы не можете редактировать свои сообщения
    Вы не можете удалять свои сообщения
    Вы не можете голосовать в опросах
    Вы не можете прикреплять файлы к сообщениям
    Вы можете скачивать файлы