Ссылка на приватное зеркало всего за 1$. Внимание количество ограничено!!!

iTunes

iTunes

iTunes

1

iTunes

iTunes

iTunes

WEBRip

iTunes

30
pack

$ от Little Big

ВАЖНО

!!Акция!!

Alien_RageХит недели

RePack

Resident Evil 21

ИГРА 18+

pack

RePack

jed

!!Акция!!

Alien_Rage

RePack

fifa19

RePack

Assassins Creed: Odyssey

RePack

NEED FOR SPEED™ PAYBACK

4 сезон

9 сезон

Бесстыжие 9 сезон

Все сериалы

все сериалы на PB.wtf

RePack

FAR CRY 5
  

Без меня (Кирилл Плетнёв) [2018, драма, мелодрама, BDRip-AVC] [GER Transfer / Лицензия] pb.wtf

Без меня через торрент pb.wtf

Размер: 1.45 GB | Добавлен: 7 мес. назад | Торрент скачан:123 раза
Скачать  

05-01-2020 15:12 Без меня Скачать торрент  

Без меня
Год выпуска: 2018
Страна: Россия
Жанр: драма, мелодрама
Продолжительность: 01:33:15
Перевод: Не требуется | Лицензия BD GER
Субтитры: Отсутствуют

Режиссер: Кирилл Плетнёв

rating

В ролях: Полина Максимова, Любовь Аксенова, Риналь Мухаметов, Кирилл Плетнёв, Анна Каменкова, Евгения Дмитриева, Иван Титяев, Владимир Яглыч, Алексей Шевченков, Агриппина Стеклова

Описание: Две девушки, любившие одного мужчину, после его гибели получают сообщения, автором которых может быть только он. В надежде на чудо им вдвоем предстоит отправиться в путь, который прокладывают его подсказки, чтобы открыть тайну, стоящую за загадочными посланиями.

Качество: BDRip-AVC | GER Transfer
Формат: MKV

Видео: 1024x428 (2,40:1), 24 fps, MPEG-4 AVC ~ 1790 Кbps avg, 0.170 bit/pixel
Аудио: AC3, 48 kHz, 6 ch, ~448.00 kbps avg | русский | Blu-ray GER
скриншот  скриншот  скриншот  скриншот  скриншот  

Общее
Уникальный идентификатор : 133041439520787373538540390338874498182 (0x6416D96698AD7BFCBCA3AFDC86F2DC86)
Полное имя : G:Bez.menya.2018.RUS.BDRip.x264.mkv
Формат : Matroska
Версия формата : Version 4
Размер файла : 1,45 Гбайт
Продолжительность : 1 ч. 33 м.
Общий поток : 2232 Кбит/сек
Дата кодирования : UTC 2020-01-05 08:22:18
Программа кодирования : mkvmerge v41.0.0 ('Smarra') 64-bit
Библиотека кодирования : libebml v1.3.9 + libmatroska v1.5.2

Видео
Идентификатор : 1
Формат : AVC
Формат/Информация : Advanced Video Codec
Профиль формата : High@L4.1
Настройки формата : CABAC / 9 Ref Frames
Параметр CABAC формата : Да
Параметр RefFrames формата : 9 кадров
Идентификатор кодека : V_MPEG4/ISO/AVC
Продолжительность : 1 ч. 33 м.
Битрейт : 1790 Кбит/сек
Ширина : 1024 пикселя
Высота : 428 пикселей
Соотношение сторон : 2,40:1
Режим частоты кадров : Постоянный
Частота кадров : 24,000 кадра/сек
Цветовое пространство : YUV
Субдискретизация насыщенности : 4:2:0
Битовая глубина : 8 бит
Тип развёртки : Прогрессивная
Бит/(Пиксели*Кадры) : 0.170
Размер потока : 1,16 Гбайт (80%)
Заголовок : #stillet
Библиотека кодирования : x264 core 152 r2851bm ba24899
Настройки программы : cabac=1 / ref=9 / deblock=1:-2:-2 / analyse=0x3:0x133 / me=umh / subme=10 / psy=1 / psy_rd=1.00:0.15 / mixed_ref=1 / me_range=32 / chroma_me=1 / trellis=2 / 8x8dct=1 / cqm=0 / deadzone=21,11 / fast_pskip=0 / chroma_qp_offset=-3 / threads=16 / lookahead_threads=3 / sliced_threads=0 / nr=0 / decimate=0 / interlaced=0 / bluray_compat=0 / constrained_intra=0 / bframes=10 / b_pyramid=2 / b_adapt=2 / b_bias=0 / direct=3 / weightb=1 / open_gop=0 / weightp=2 / keyint=240 / keyint_min=24 / scenecut=40 / intra_refresh=0 / rc=2pass / mbtree=0 / bitrate=1790 / ratetol=1.0 / qcomp=0.60 / qpmin=0 / qpmax=69 / qpstep=4 / cplxblur=20.0 / qblur=0.5 / ip_ratio=1.40 / pb_ratio=1.30 / aq=1:1.00
Язык : German
Default : Да
Forced : Нет

Аудио
Идентификатор : 2
Формат : AC-3
Формат/Информация : Audio Coding 3
Коммерческое название : Dolby Digital
Идентификатор кодека : A_AC3
Продолжительность : 1 ч. 33 м.
Вид битрейта : Постоянный
Битрейт : 448 Кбит/сек
Каналы : 6 каналов
ChannelLayout : L R C LFE Ls Rs
Частота : 48,0 КГц
Частота кадров : 31,250 кадров/сек (1536 SPF)
Метод сжатия : С потерями
Размер потока : 299 Мбайт (20%)
Заголовок : Blu-ray GER
Язык : Russian
Default : Да
Forced : Нет

pb.wtf



Скачать Без меня через торрент https://i111.fastpic.ru/big/2020/0104/2b/4c85792322a425063eb93a586c82672b.jpg Скачать фильм Без меня через торрент бесплантно в хорошем качестве Описание: Две девушки, любившие одного мужчину, после его гибели получают сообщения, автором которых может быть только он. В надежде на ... 10 10 6
Торрент: Зарегистрирован [2020-01-05 15:12] · скачан: 123 раз
Статус: √ проверено
Размер: 1.45 GB
Как cкачать? Как скачать Без меня через торрент | qTorrent

% Раздел Тема Автор DL S | L
Рок, Панк, Альтернатива (lossless) [ 650 MB ] VA - Без меня. Трибьют Егора Летова 2019 / FLAC / lossless / Рок bober100 Скачать
1 | 0
Рок, Панк, Альтернатива (mp3) [ 220 MB ] VA - Без меня. Трибьют Егора Летова 2019 / MP3 / 320 kbps / Punk Rock Indie Rock Hip-Hop bober100 Скачать
1 | 0
Наши фильмы (HD, WEB-DL 720p, 1080p) [ 3.34 GB ] Без меня [2018 BDRip 720p] [GER Transfer / ] bober100 Скачать
1 | 0
Наши новые фильмы 2018-2019 [ 1.46 GB ] Без меня [2018 BDRip] [Русский] [] Twi7ter Скачать
9 | 1
Наши фильмы (HD, WEB-DL 720p, 1080p) [ 7.34 GB ] Без меня [2018 BDRip 1080p] [GER Transfer / ] bober100 Скачать
1 | 0
Наши новые фильмы 2018-2019 [ 744 MB ] Без меня [2018 BDRip] [GER Transfer / ] bober100 Скачать
1 | 0
Фильмы (Blu-ray, BD-Remux, HDDVD) [ 19.52 GB ] Без меня [2018 Blu-ray 1080p] [GER Transfer / ] bober100 Скачать
1 | 0

28-11-2019 20:33  

Отключить всю рекламу на сайте

    Дорогой пользователь! Огромная просьба, поблагодарите релизера, оцените раздачу и оставьте свои комментарий, если Вы скачали Без меня через торрент бесплатно! Внесите свою лепту в развитие PiratBit!
    Комментировать посты могут только пользователи прошедшие не сложную регистрацию
    Показать сообщения:    

    Без меня через торрент
    Скачать бесплатно Без меня
    Без меня скачать торрент
    Без меня смотреть онлайн
    Cкачать фильм Без меня бесплатно
    Без меня скачать торрент в хорошем качестве
    Без меня смотреть онлайн бесплатно в хорошем качестве


    Вы не можете начинать темы
    Вы не можете отвечать на сообщения
    Вы не можете редактировать свои сообщения
    Вы не можете удалять свои сообщения
    Вы не можете голосовать в опросах
    Вы не можете прикреплять файлы к сообщениям
    Вы можете скачивать файлы