2 сезон

iTunes

1 сезон

1

iTunes

iTunes

iTunes

1 сезон

RePack

30

ИГРА 18+

pack

ВАЖНО

!!Акция!!

Alien_RageХит недели

RePack

MK11
pack

Забери бонус

RePack

jed

!!Акция!!

Alien_Rage

RePack

fifa19

RePack

Assassins Creed: Odyssey

RePack

NEED FOR SPEED™ PAYBACK

4 сезон

9 сезон

Бесстыжие 9 сезон

Все сериалы

все сериалы на PB.wtf

RePack

FAR CRY 5
  

Старая гвардия. Огненный след / Сезон: 3 / Серии: 1-4 из 4 (Ашот Кещян) [2020, Детектив, криминал, SATRip] pb.wtf

Старая гвардия. Огненный след через торрент pb.wtf

Размер: 2.37 GB | Добавлен: 9 мес. назад | Торрент скачан:62 раза
Скачать  

05-01-2020 15:38 Старая гвардия. Огненный след Скачать торрент  

Старая гвардия. Огненный след Год выпуска: 2020
Страна: Россия
Жанр: Детектив, криминал
Продолжительность: ~ 00:45:00
Субтитры: отсутствуют

Режиссер: Ашот Кещян



В ролях: Катерина Шпица, Вадим Андреев, Анатолий Лобоцкий, Алёна Хмельницкая, Вера Воронкова, Иван Прилль, Нил Кропалов

Описание: Капитан Вера Ершова и ее команда получает новое задание. Им предстоит расследовать обстоятельства пожара, унесшего жизнь школьного сторожа Симонова. Поначалу кажется, что произошел несчастный случай, но наметанный глаз Сапронова быстро подмечает нестыковки. Бобрыкин выясняет, что прежде Симонов работал пожарным инспектором. Странная смерть для человека с такой профессией! Вскоре «Старая гвардия» приходит к выводу, что совершено убийство, причем очень изобретательное. И преступник, очевидно, не намерен останавливаться. Поймать злодея не так-то просто, ведь для расправы над жертвами он использует хитроумные ловушки, которые заранее расставляет. Ясно одно: каждая из них так или иначе связана с огнем… Соперничество Бобрыкина и Сапронова за сердце подполковника Романовой выходит на новый уровень, а Вера все сильнее влюбляется в Гарика, с которым познакомилась во время расследования одного из прошлых дел. Ситуацию осложняет то, что Гарик женат, и чувства к нему могут обойтись Вере очень дорого.

Качество: SATRip
Формат: AVI

Видео: XviD, 720x400, ~ 1700 Кбит/с, 0.235 bit/pixel
Аудио: МР3, 48,0 КГц, 2 ch, 192 Кбит/с
скриншот  скриншот  скриншот  скриншот  скриншот  

Общее
Полное имя : D:\Старая.гвардия.S03.Огненный.след.2020.XviD.SATRip.Kinozal-Reliz.7turza\01.Старая.гвардия.S03.Огненный.след.Kinozal-Reliz.7turza.avi
Формат : AVI
Формат/Информация : Audio Video Interleave
Размер файла : 615 Мбайт
Продолжительность : 45 м. 17 с.
Общий поток : 1897 Кбит/сек
Название фильма : S03 E01 # from 7turza #
Программа кодирования : Lavf58.29.100

Видео
Идентификатор : 0
Формат : MPEG-4 Visual
Профиль формата : Advanced Simple@L5
Настройки формата : BVOP1
Параметр BVOP формата : 1
Параметр QPel формата : Нет
Параметр GMC формата : Без точки перехода
Параметр матрицы формата : Default (H.263)
Идентификатор кодека : XVID
Идентификатор кодека/Подсказка : XviD
Продолжительность : 45 м. 17 с.
Битрейт : 1692 Кбит/сек
Ширина : 720 пикселей
Высота : 400 пикселей
Соотношение сторон : 1,85:1
Частота кадров : 25,000 кадров/сек
Цветовое пространство : YUV
Субдискретизация насыщенности : 4:2:0
Битовая глубина : 8 бит
Тип развёртки : Прогрессивная
Бит/(Пиксели*Кадры) : 0.235
Размер потока : 548 Мбайт (89%)
Библиотека кодирования : XviD 67

Аудио
Идентификатор : 1
Формат : MPEG Audio
Версия формата : Version 1
Профиль формата : Layer 3
Настройки формата : Joint stereo / MS Stereo
Идентификатор кодека : 55
Идентификатор кодека/Подсказка : MP3
Продолжительность : 45 м. 17 с.
Вид битрейта : Постоянный
Битрейт : 192 Кбит/сек
Каналы : 2 канала
Частота : 48,0 КГц
Размер потока : 62,2 Мбайт (10%)
Выравнивание : Соединение по промежуткам
Продолжительность промежутка : 24 мс. (0,60 видеокадр)
Библиотека кодирования : LAMEI$”˺ / ”ÀÉöÌ|À‡

pb.wtf



Скачать Старая гвардия. Огненный след через торрент https://a.radikal.ru/a16/2001/cd/07761ff9f2b0.jpg Скачать фильм Старая гвардия. Огненный след через торрент бесплантно в хорошем качестве Описание: Капитан Вера Ершова и ее команда получает новое задание. Им предстоит расследовать обстоятельства пожара, унесшего жизнь ... 10 10 5
Торрент: Зарегистрирован [2020-01-05 15:38] · скачан: 62 раз
Статус: √ проверено
Размер: 2.37 GB
Как cкачать? Как скачать Старая гвардия. Огненный след через торрент | qTorrent

% Раздел Тема Автор DL S | L
Наши сериалы [ 2.31 GB ] Старая гвардия. Огненный след / Сезон: 3 / Серии: 1-4 из 4 [2020 WEB-DLRip-AVC] bober100 Скачать
1 | 0
Наши сериалы [ 2.32 GB ] Старая гвардия. Огненный след / Сезон: 3 / Серии: 1-4 из 4 [2020 WEB-DLRip] bober100 Скачать
1 | 0

28-11-2019 20:33  

Отключить всю рекламу на сайте

    Дорогой пользователь! Огромная просьба, поблагодарите релизера, оцените раздачу и оставьте свои комментарий, если Вы скачали Старая гвардия. Огненный след через торрент бесплатно! Внесите свою лепту в развитие PiratBit!
    Комментировать посты могут только пользователи прошедшие не сложную регистрацию
    Показать сообщения:    

    Старая гвардия. Огненный след через торрент
    Скачать бесплатно Старая гвардия. Огненный след
    Старая гвардия. Огненный след скачать торрент
    Старая гвардия. Огненный след смотреть онлайн
    Cкачать фильм Старая гвардия. Огненный след бесплатно
    Старая гвардия. Огненный след скачать торрент в хорошем качестве
    Старая гвардия. Огненный след смотреть онлайн бесплатно в хорошем качестве


    Вы не можете начинать темы
    Вы не можете отвечать на сообщения
    Вы не можете редактировать свои сообщения
    Вы не можете удалять свои сообщения
    Вы не можете голосовать в опросах
    Вы не можете прикреплять файлы к сообщениям
    Вы можете скачивать файлы