2 сезон

iTunes

1 сезон

1

iTunes

iTunes

iTunes

1 сезон

RePack

30

ИГРА 18+

pack

ВАЖНО

!!Акция!!

Alien_RageХит недели

RePack

MK11
pack

Забери бонус

RePack

jed

!!Акция!!

Alien_Rage

RePack

fifa19

RePack

Assassins Creed: Odyssey

RePack

NEED FOR SPEED™ PAYBACK

4 сезон

9 сезон

Бесстыжие 9 сезон

Все сериалы

все сериалы на PB.wtf

RePack

FAR CRY 5
  

Референт / Серии: 1-4 из 4 (Павел Тупик) [2019, Мелодрама, WEB-DL 1080p] pb.wtf

Референт через торрент pb.wtf

Размер: 6.43 GB | Добавлен: 9 мес. назад | Торрент скачан:15 раз
Скачать  

05-01-2020 21:12 Референт Скачать торрент  

Референт Год выпуска: 2019
Страна: Россия, Украина
Жанр: Мелодрама
Продолжительность: ~ 00:45:00
Перевод: Не требуется
Субтитры: отсутствуют

Режиссер: Павел Тупик



В ролях: Елена Шилова (II), Алексей Зубков, Алла Масленникова, Дмитрий Сова, Людмила Смородина, Мирослава Филиппович, Владислав Никитюк, Марк Терещенко (II), Анатолий Ященко, Павел Алдошин, Заза Чантурия, Марта Логачёва, Владимир Абазопуло мл., Мирослав Павличенко

Описание: Узнав об измене мужа, Марина решает начать новую жизнь. Но квартира, в которой они с Андреем и их сыном Глебом провели лучшие годы, принадлежит свекрови Елене Константиновне, которая невестку терпеть не может. Да и в свои двадцать семь Марина в совершенстве освоила лишь профессию хранительницы домашнего очага. А свекровь подговаривает Андрея лишить Марину ее главной жизненной ценности - сына....

Качество: WEB-DL 1080p
Формат: MKV

Видео: MPEG-4 AVC, ~ 5000 Кбит/с, 1920x1080, 25 кадр/с
Аудио: 48.0 kHz, AC3 Dolby Digital, 2/0 (L,R) ch, ~ 192 kbps
скриншот  скриншот  скриншот  скриншот  скриншот  

General
Unique ID : 277410587044387301025258130561024575865 (0xD0B355ED05074A6F92BA81B9C96EC979)
Complete name : C:01.Референт.(2019).WEB-DL (1080p).by.Nicodem.Files-x.mkv
Format : Matroska
File size : 1.62 GiB
Duration : 44mn 39s
Overall bit rate : 5 178 Kbps
Writing application : Lavf56.36.100
Writing library : Lavf56.36.100

Video
ID : 1
Format : AVC
Format/Info : Advanced Video Codec
Format profile : High@L4.1
Format settings, CABAC : Yes
Format settings, ReFrames : 5 frames
Codec ID : V_MPEG4/ISO/AVC
Duration : 44mn 39s
Bit rate : 5 000 Kbps
Width : 1 920 pixels
Height : 1 080 pixels
Display aspect ratio : 16:9
Frame rate mode : Variable
Frame rate : 25.000 fps
Color space : YUV
Chroma subsampling : 4:2:0
Bit depth : 8 bits
Scan type : Progressive
Bits/(Pixel*Frame) : 0.096
Stream size : 1.52 GiB (94%)
Writing library : x264 core 148
Encoding settings : cabac=1 / ref=5 / deblock=1:0:0 / analyse=0x3:0x113 / me=hex / subme=8 / psy=1 / psy_rd=1.00:0.00 / mixed_ref=1 / me_range=16 / chroma_me=1 / trellis=2 / 8x8dct=1 / cqm=0 / deadzone=21,11 / fast_pskip=1 / chroma_qp_offset=-2 / threads=34 / lookahead_threads=5 / sliced_threads=0 / nr=0 / decimate=1 / interlaced=0 / bluray_compat=0 / constrained_intra=0 / bframes=3 / b_pyramid=2 / b_adapt=1 / b_bias=0 / direct=3 / weightb=1 / open_gop=0 / weightp=2 / keyint=250 / keyint_min=25 / scenecut=0 / intra_refresh=0 / rc_lookahead=50 / rc=abr / mbtree=1 / bitrate=5000 / ratetol=1.0 / qcomp=0.60 / qpmin=0 / qpmax=69 / qpstep=4 / ip_ratio=1.40 / aq=1:1.00
Language : English

Audio
ID : 2
Format : AC-3
Format/Info : Audio Coding 3
Mode extension : CM (complete main)
Codec ID : A_AC3
Duration : 44mn 39s
Bit rate mode : Constant
Bit rate : 192 Kbps
Channel(s) : 2 channels
Channel positions : Front: L R
Sampling rate : 44.1 KHz
Bit depth : 16 bits
Compression mode : Lossy
Delay relative to video : 1mn 5s
Stream size : 61.3 MiB (4%)
Language : English / un

pb.wtf



Скачать Референт через торрент https://i110.fastpic.ru/big/2019/0204/58/a6009b1a5c3e3eb809d42a5164521158.jpg Скачать фильм Референт через торрент бесплантно в хорошем качестве Описание: Узнав об измене мужа, Марина решает начать новую жизнь. Но квартира, в которой они с Андреем и их сыном Глебом провели лучшие ... 10 10 4
Торрент: Зарегистрирован [2020-01-05 21:12] · скачан: 15 раз
Статус: √ проверено
Размер: 6.43 GB
Как cкачать? Как скачать Референт через торрент | qTorrent

% Раздел Тема Автор DL S | L
Наши сериалы [ 4.57 GB ] Референт / Серии: 1-4 из 4 [2019 Мело WEB-DL 720p] bober100 Скачать
1 | 0
Наши сериалы [ 2.31 GB ] Референт / Серии: 1-4 из 4 [2019 Мело WEB-DLRip] bober100 Скачать
1 | 0

28-11-2019 20:33  

Отключить всю рекламу на сайте

    Дорогой пользователь! Огромная просьба, поблагодарите релизера, оцените раздачу и оставьте свои комментарий, если Вы скачали Референт через торрент бесплатно! Внесите свою лепту в развитие PiratBit!
    Комментировать посты могут только пользователи прошедшие не сложную регистрацию
    Показать сообщения:    

    Референт через торрент
    Скачать бесплатно Референт
    Референт скачать торрент
    Референт смотреть онлайн
    Cкачать фильм Референт бесплатно
    Референт скачать торрент в хорошем качестве
    Референт смотреть онлайн бесплатно в хорошем качестве


    Вы не можете начинать темы
    Вы не можете отвечать на сообщения
    Вы не можете редактировать свои сообщения
    Вы не можете удалять свои сообщения
    Вы не можете голосовать в опросах
    Вы не можете прикреплять файлы к сообщениям
    Вы можете скачивать файлы