Ссылка на приватное зеркало нашего сайта всего за 1$. Внимание количество ограничено!!!

2 сезон

iTunes

1 сезон

1

2 сезон

2 сезон

iTunes

1 сезон

RePack

30

Ultimate

ВАЖНО

ИГРА 18+

pack

RePack

MK11
pack

Забери бонус

RePack

jed

!!Акция!!

Alien_Rage

RePack

fifa19

RePack

Assassins Creed: Odyssey

RePack

NEED FOR SPEED™ PAYBACK

4 сезон

9 сезон

Бесстыжие 9 сезон

Все сериалы

все сериалы на PB.wtf

RePack

FAR CRY 5
  

Epica - Design Your Universe (Gold Edition,2CD, 2009) - 2019/ FLAC/ image +.cue/ lossless/ Symphonic Metal, Gothic Metal, Power Metal pb.wtf

Epica - Design Your Universe через торрент pb.wtf

Размер: 746 MB | Добавлен: 10 мес. назад | Торрент скачан:6 раз
Скачать  

06-01-2020 10:31 Epica - Design Your Universe Скачать торрент  


Epica - Design Your Universe (Gold Edition,2CD, 2009) - 2019


Год издания: 2019
Страна: Netherlands
Жанр: Symphonic Metal, Gothic Metal, Power Metal
Продолжительность: 01:47:19
Лейбл издания: Nuclear Blast
Страна-выпуска диска: EU
Номер по каталогу: 27361 50620
Формат: FLAC
Битрейт аудио: Lossless
Тип рипа: image +.cue
Наличие сканов в содержимом раздачи: да


01. Samadhi (1:27)
02. Resign to Surrender (6:19)
03. Unleashed (5:48)
04. Martyr of the Free Word (5:03)
05. Our Destiny (6:00)
06. Kingdom of Heaven (13:36)
07. The Price of Freedom (1:13)
08. Burn to a Cinder (5:41)
09. Tides of Time (5:33)
10. Desconstruct (4:14)
11. Semblance of Liberty (5:42)
12. White Waters (4:44)
13. Design Your Universe (9:33)
14. Incentive (4:13)

01. Burn To A Cinder (5:33)
02. Our Destiny (5:13)
03. Unleashed (5:07)
04. Martyr of the Free Word (3:56)
05. Design Your Universe (8:22)

Код:

Exact Audio Copy V1.1 from 23. June 2015

EAC extraction logfile from 10. December 2019, 16:24

Epica / Design Your Universe CD1

Used drive  : PIONEER BD-RW   BDR-209D   Adapter: 0  ID: 5

Read mode               : Secure
Utilize accurate stream : Yes
Defeat audio cache      : Yes
Make use of C2 pointers : No

Read offset correction                      : 667
Overread into Lead-In and Lead-Out          : No
Fill up missing offset samples with silence : Yes
Delete leading and trailing silent blocks   : No
Null samples used in CRC calculations       : Yes
Used interface                              : Installed external ASPI interface

Used output format              : User Defined Encoder
Selected bitrate                : 768 kBit/s
Quality                         : High
Add ID3 tag                     : No
Command line compressor         : C:\Program Files (x86)\Exact Audio Copy\FLAC\FLAC.EXE
Additional command line options : -6 -V -T "ARTIST=%artist%" -T "TITLE=%title%" -T "ALBUM=%albumtitle%" -T "DATE=%year%" -T "TRACKNUMBER=%tracknr%" -T "GENRE=%genre%" -T "COMMENT=%comment%" -T "BAND=%albuminterpret%" -T "ALBUMARTIST=%albuminterpret%" -T "COMPOSER=%composer%" %haslyrics%--tag-from-file=LYRICS="%lyricsfile%"%haslyrics% -T "DISCNUMBER=%cdnumber%" -T "TOTALDISCS=%totalcds%" -T "TOTALTRACKS=%numtracks%" %hascover%--picture="%coverfile%"%hascover% %source% -o %dest%

TOC of the extracted CD

     Track |   Start  |  Length  | Start sector | End sector
    ---------------------------------------------------------
        1  |  0:00.00 |  1:27.14 |         0    |     6538
        2  |  1:27.14 |  6:19.35 |      6539    |    34998
        3  |  7:46.49 |  5:47.50 |     34999    |    61073
        4  | 13:34.24 |  5:03.19 |     61074    |    83817
        5  | 18:37.43 |  6:00.21 |     83818    |   110838
        6  | 24:37.64 | 13:36.07 |    110839    |   172045
        7  | 38:13.71 |  1:13.28 |    172046    |   177548
        8  | 39:27.24 |  5:40.47 |    177549    |   203095
        9  | 45:07.71 |  5:33.32 |    203096    |   228102
       10  | 50:41.28 |  4:14.14 |    228103    |   247166
       11  | 54:55.42 |  5:42.10 |    247167    |   272826
       12  | 60:37.52 |  4:44.08 |    272827    |   294134
       13  | 65:21.60 |  9:32.42 |    294135    |   337076
       14  | 74:54.27 |  4:13.30 |    337077    |   356081

Range status and errors

Selected range

     Filename E:\MUSIC\Epica - Design Your Universe CD1.wav

     Peak level 98.8 %
     Extraction speed 8.6 X
     Range quality 100.0 %
     Test CRC EDDA3F2D
     Copy CRC EDDA3F2D
     Copy OK

No errors occurred

AccurateRip summary

Track  1  not present in database
Track  2  not present in database
Track  3  not present in database
Track  4  not present in database
Track  5  not present in database
Track  6  not present in database
Track  7  not present in database
Track  8  not present in database
Track  9  not present in database
Track 10  not present in database
Track 11  not present in database
Track 12  not present in database
Track 13  not present in database
Track 14  not present in database

None of the tracks are present in the AccurateRip database

End of status report

Код:

Exact Audio Copy V1.1 from 23. June 2015

EAC extraction logfile from 10. December 2019, 16:35

Epica / Design Your Universe CD2 The Acoustic Universe]

Used drive  : PIONEER BD-RW   BDR-209D   Adapter: 0  ID: 5

Read mode               : Secure
Utilize accurate stream : Yes
Defeat audio cache      : Yes
Make use of C2 pointers : No

Read offset correction                      : 667
Overread into Lead-In and Lead-Out          : No
Fill up missing offset samples with silence : Yes
Delete leading and trailing silent blocks   : No
Null samples used in CRC calculations       : Yes
Used interface                              : Installed external ASPI interface

Used output format              : User Defined Encoder
Selected bitrate                : 768 kBit/s
Quality                         : High
Add ID3 tag                     : No
Command line compressor         : C:\Program Files (x86)\Exact Audio Copy\FLAC\FLAC.EXE
Additional command line options : -6 -V -T "ARTIST=%artist%" -T "TITLE=%title%" -T "ALBUM=%albumtitle%" -T "DATE=%year%" -T "TRACKNUMBER=%tracknr%" -T "GENRE=%genre%" -T "COMMENT=%comment%" -T "BAND=%albuminterpret%" -T "ALBUMARTIST=%albuminterpret%" -T "COMPOSER=%composer%" %haslyrics%--tag-from-file=LYRICS="%lyricsfile%"%haslyrics% -T "DISCNUMBER=%cdnumber%" -T "TOTALDISCS=%totalcds%" -T "TOTALTRACKS=%numtracks%" %hascover%--picture="%coverfile%"%hascover% %source% -o %dest%

TOC of the extracted CD

     Track |   Start  |  Length  | Start sector | End sector
    ---------------------------------------------------------
        1  |  0:00.00 |  5:32.56 |         0    |    24955
        2  |  5:32.56 |  5:13.07 |     24956    |    48437
        3  | 10:45.63 |  5:06.44 |     48438    |    71431
        4  | 15:52.32 |  3:56.37 |     71432    |    89168
        5  | 19:48.69 |  8:21.70 |     89169    |   126813

Range status and errors

Selected range

     Filename E:\MUSIC\Epica - Design Your Universe CD2 The Acoustic Universe].wav

     Peak level 98.8 %
     Extraction speed 6.5 X
     Range quality 100.0 %
     Test CRC BF25C10A
     Copy CRC BF25C10A
     Copy OK

No errors occurred

AccurateRip summary

Track  1  not present in database
Track  2  not present in database
Track  3  not present in database
Track  4  not present in database
Track  5  not present in database

None of the tracks are present in the AccurateRip database

End of status report

Код:

REM GENRE "Symphonic Metal"
REM DATE 2019
REM DISCID E9128B0E
REM COMMENT "ExactAudioCopy v1.1"
PERFORMER "Epica"
TITLE "Design Your Universe CD1"
FILE "Epica - Design Your Universe CD1.flac" WAVE
  TRACK 01 AUDIO
    TITLE "Samadhi"
    PERFORMER "Epica"
    INDEX 01 00:00:00
  TRACK 02 AUDIO
    TITLE "Resign to Surrender"
    PERFORMER "Epica"
    INDEX 01 01:27:14
  TRACK 03 AUDIO
    TITLE "Unleashed"
    PERFORMER "Epica"
    INDEX 01 07:46:49
  TRACK 04 AUDIO
    TITLE "Martyr of the Free Word"
    PERFORMER "Epica"
    INDEX 01 13:34:24
  TRACK 05 AUDIO
    TITLE "Our Destiny"
    PERFORMER "Epica"
    INDEX 01 18:37:43
  TRACK 06 AUDIO
    TITLE "Kingdom of Heaven"
    PERFORMER "Epica"
    INDEX 01 24:37:64
  TRACK 07 AUDIO
    TITLE "The Price of Freedom"
    PERFORMER "Epica"
    INDEX 01 38:13:71
  TRACK 08 AUDIO
    TITLE "Burn to a Cinder"
    PERFORMER "Epica"
    INDEX 01 39:27:24
  TRACK 09 AUDIO
    TITLE "Tides of Time"
    PERFORMER "Epica"
    INDEX 01 45:07:71
  TRACK 10 AUDIO
    TITLE "Desconstruct"
    PERFORMER "Epica"
    INDEX 01 50:41:28
  TRACK 11 AUDIO
    TITLE "Semblance of Liberty"
    PERFORMER "Epica"
    INDEX 01 54:55:42
  TRACK 12 AUDIO
    TITLE "White Waters"
    PERFORMER "Epica"
    INDEX 01 60:37:52
  TRACK 13 AUDIO
    TITLE "Design Your Universe"
    PERFORMER "Epica"
    INDEX 01 65:21:60
  TRACK 14 AUDIO
    TITLE "Incentive"
    PERFORMER "Epica"
    INDEX 01 74:54:27

Код:

REM GENRE Metal
REM DATE 2019
REM DISCID 3A069A05
REM COMMENT "ExactAudioCopy v1.1"
PERFORMER "Epica"
TITLE "Design Your Universe CD2 The Acoustic Universe"
FILE "Epica - Design Your Universe CD2 The Acoustic Universe.flac" WAVE
  TRACK 01 AUDIO
    TITLE "Burn To A Cinder"
    PERFORMER "Epica"
    INDEX 01 00:00:00
  TRACK 02 AUDIO
    TITLE "Our Destiny"
    PERFORMER "Epica"
    INDEX 01 05:32:56
  TRACK 03 AUDIO
    TITLE "Unleashed"
    PERFORMER "Epica"
    INDEX 01 10:45:63
  TRACK 04 AUDIO
    TITLE "Martyr of the Free Word"
    PERFORMER "Epica"
    INDEX 01 15:52:32
  TRACK 05 AUDIO
    TITLE "Design Your Universe"
    PERFORMER "Epica"
    INDEX 01 19:48:69






pb.wtf



Скачать Epica - Design Your Universe через торрент https://c.radikal.ru/c30/2001/66/edd40a28e0fa.png Скачать фильм Epica - Design Your Universe через торрент бесплантно в хорошем качестве ... 10 10 1
Торрент: Зарегистрирован [2020-01-06 10:31] · скачан: 6 раз
Статус: √ проверено
Размер: 746 MB
Как cкачать? Как скачать Epica - Design Your Universe через торрент | qTorrent

28-11-2019 20:33  

Отключить всю рекламу на сайте

    Дорогой пользователь! Огромная просьба, поблагодарите релизера, оцените раздачу и оставьте свои комментарий, если Вы скачали Epica - Design Your Universe через торрент бесплатно! Внесите свою лепту в развитие PiratBit!
    Комментировать посты могут только пользователи прошедшие не сложную регистрацию
    Показать сообщения:    

    Epica - Design Your Universe через торрент
    Скачать бесплатно Epica - Design Your Universe
    Epica - Design Your Universe скачать торрент
    Epica - Design Your Universe смотреть онлайн
    Cкачать фильм Epica - Design Your Universe бесплатно
    Epica - Design Your Universe скачать торрент в хорошем качестве
    Epica - Design Your Universe смотреть онлайн бесплатно в хорошем качестве


    Вы не можете начинать темы
    Вы не можете отвечать на сообщения
    Вы не можете редактировать свои сообщения
    Вы не можете удалять свои сообщения
    Вы не можете голосовать в опросах
    Вы не можете прикреплять файлы к сообщениям
    Вы можете скачивать файлы