Ссылка на приватное зеркало нашего сайта всего за 1$. Внимание количество ограничено!!!

2 сезон

iTunes

1 сезон

1

2 сезон

2 сезон

iTunes

1 сезон

RePack

30

Ultimate

ВАЖНО

ИГРА 18+

pack

RePack

MK11
pack

Забери бонус

RePack

jed

!!Акция!!

Alien_Rage

RePack

fifa19

RePack

Assassins Creed: Odyssey

RePack

NEED FOR SPEED™ PAYBACK

4 сезон

9 сезон

Бесстыжие 9 сезон

Все сериалы

все сериалы на PB.wtf

RePack

FAR CRY 5
  

Старые шпионские игры / Паук в паутине / Spider in the Web (Эран Риклис) [2019, Триллер, BD Remux 1080p] DUB [iTunes] pb.wtf

Старые шпионские игры через торрент pb.wtf

Размер: 16.01 GB | Добавлен: 10 мес. назад | Торрент скачан:54 раза
Скачать  

06-01-2020 10:46 Старые шпионские игры Скачать торрент  

Старые шпионские игры / Паук в паутине / Spider in the Web
Год выпуска: 2019
Страна: Великобритания, Израиль,Бельгия
Студия: Eran Riklis Productions, Ciné Cri De Coeur, Film Constellation
Жанр: Триллер
Продолжительность: 01:53:56
Перевод: Дублированный | iTunes
Субтитры: Русские (Forced, full), английские

Режиссер: Эран Риклис

rating

В ролях: Бен Кингсли, Моника Беллуччи, Итай Тиран, Ицик Коэн, Филип Пеетерс, Хильде Ван Мигхем, Макрам Хури, Марсель Хенсема, Люк Винс, Стилиан Кели, Матейс Шеперс, Воутер Ван Лирд

Описание: В свое время Адерет был одним из лучших секретных агентов в мире. Но время идёт, и вот уже начальство считает его слишком старым и отправляет шпиона в вынужденную отставку. Последний шанс восстановить былую репутацию появляется благодаря секретной операции, которая наводит Адерета на след поставщика химического оружия. Пока он выслеживает Анджелу, руководство посылает за ним молодого оперативника Дэниэла. Вновь ввязавшись в знакомую игру в кошки-мышки, старый разведчик постепенно понимает, что из охотника превратился в жертву.

Качество: BD Remux 1080p
Формат: MKV

Видео: MPEG-4 AVC, 1920x1080, 18.0 Mbit/s, 24 fps
Аудио#1: 48 kHz, AC3, 5.1, 384 Kbps | iTunes | RUS |
Аудио#2: 48 kHz, DTS-HD MA, 5.1, 1734 Kbps | Оригинал | ENG |
скриншот  скриншот  скриншот  скриншот  скриншот  

General
Unique ID : 264919908702602500510019541708144239708 (0xC74DB7EFD7DEE74BE0BC0F848FF5E45C)
Complete name : E:Video111Spider.in.the.Web.2019.BDREMUX.1080p.seleZen.mkv
Format : Matroska
Format version : Version 4
File size : 16.0 GiB
Duration : 1 h 53 min
Overall bit rate mode : Variable
Overall bit rate : 20.1 Mb/s
Movie name : Spider in the Web 2019 from селезень
Encoded date : UTC 2020-01-06 10:23:56
Writing application : mkvmerge v40.0.0 ('Old Town Road + Pony') 64-bit
Writing library : libebml v1.3.9 + libmatroska v1.5.2

Video
ID : 1
Format : AVC
Format/Info : Advanced Video Codec
Format profile : High@L4.1
Format settings : CABAC / 4 Ref Frames
Format settings, CABAC : Yes
Format settings, Reference : 4 frames
Codec ID : V_MPEG4/ISO/AVC
Duration : 1 h 53 min
Bit rate mode : Variable
Bit rate : 18.0 Mb/s
Maximum bit rate : 35.0 Mb/s
Width : 1 920 pixels
Height : 1 080 pixels
Display aspect ratio : 16:9
Frame rate mode : Constant
Frame rate : 24.000 FPS
Standard : NTSC
Color space : YUV
Chroma subsampling : 4:2:0
Bit depth : 8 bits
Scan type : Progressive
Bits/(Pixel*Frame) : 0.362
Stream size : 14.3 GiB (89%)
Language : German
Default : Yes
Forced : No
Color range : Limited
Color primaries : BT.709
Transfer characteristics : BT.709
Matrix coefficients : BT.709

Audio #1
ID : 2
Format : AC-3
Format/Info : Audio Coding 3
Commercial name : Dolby Digital
Codec ID : A_AC3
Duration : 1 h 53 min
Bit rate mode : Constant
Bit rate : 384 kb/s
Channel(s) : 6 channels
Channel layout : L R C LFE Ls Rs
Sampling rate : 48.0 kHz
Frame rate : 31.250 FPS (1536 SPF)
Compression mode : Lossy
Stream size : 313 MiB (2%)
Title : iTunes
Language : Russian
Service kind : Complete Main
Default : Yes
Forced : Yes

Audio #2
ID : 3
Format : DTS XLL
Format/Info : Digital Theater Systems
Commercial name : DTS-HD Master Audio
Codec ID : A_DTS
Duration : 1 h 53 min
Bit rate mode : Variable
Bit rate : 1 734 kb/s
Channel(s) : 6 channels
Channel layout : C L R Ls Rs LFE
Sampling rate : 48.0 kHz
Frame rate : 93.750 FPS (512 SPF)
Bit depth : 16 bits
Compression mode : Lossless
Stream size : 1.38 GiB (9%)
Title : Original
Language : English
Default : No
Forced : No

Text #1
ID : 4
Format : UTF-8
Codec ID : S_TEXT/UTF8
Codec ID/Info : UTF-8 Plain Text
Duration : 1 h 47 min
Bit rate : 2 b/s
Count of elements : 58
Stream size : 2.35 KiB (0%)
Title : Forced
Language : Russian
Default : Yes
Forced : Yes

Text #2
ID : 5
Format : UTF-8
Codec ID : S_TEXT/UTF8
Codec ID/Info : UTF-8 Plain Text
Duration : 1 h 47 min
Bit rate : 80 b/s
Count of elements : 1162
Stream size : 63.7 KiB (0%)
Title : Full
Language : Russian
Default : No
Forced : No

Text #3
ID : 6
Format : UTF-8
Codec ID : S_TEXT/UTF8
Codec ID/Info : UTF-8 Plain Text
Duration : 1 h 44 min
Bit rate : 53 b/s
Count of elements : 1498
Stream size : 40.8 KiB (0%)
Title : Full
Language : English
Default : No
Forced : No

Menu
00:00:00.000 : de:Глава 01
00:09:27.875 : de:Глава 02
00:18:54.167 : de:Глава 03
00:27:00.208 : de:Глава 04
00:35:57.792 : de:Глава 05
00:45:08.833 : de:Глава 06
00:55:24.833 : de:Глава 07
01:05:56.583 : de:Глава 08
01:15:12.208 : de:Глава 09
01:26:26.917 : de:Глава 10
01:41:48.250 : de:Глава 11
01:48:40.833 : de:Глава 12

pb.wtf



Скачать Старые шпионские игры через торрент https://b.radikal.ru/b41/2001/b4/64c01bdf0fe7.jpg Скачать фильм Старые шпионские игры через торрент бесплантно в хорошем качестве Описание: В свое время Адерет был одним из лучших секретных агентов в мире. Но время идёт, и вот уже начальство считает его слишком старым ... 9.7 10 3
Торрент: Зарегистрирован [2020-01-06 10:46] · скачан: 54 раз
Статус: √ проверено
Размер: 16.01 GB
Как cкачать? Как скачать Старые шпионские игры через торрент | qTorrent

% Раздел Тема Автор DL S | L
Фильмы 2019-2020 [DVDrip, WEB-DLRip, HDrip] (DUB, MVO) [ 746 MB ] Старые шпионские игры / Паук в паутине / Spider in the Web [2019 HDRip] bober100 Скачать
2 | 0
Фильмы 2019-2020 [DVDrip, WEB-DLRip, HDrip] (DUB, MVO) [ 1.41 GB ] Старые шпионские игры / Паук в паутине / Spider in the Web [2019 BDRip] bober100 Скачать
2 | 0
Фильмы [HD 720p, 1080p] (Хороший звук DUB, MVO) [ 5.59 GB ] Старые шпионские игры / Паук в паутине / Spider in the Web [2019 BDRip 720p] bober100 Скачать
1 | 0

28-11-2019 20:33  

Отключить всю рекламу на сайте

    Дорогой пользователь! Огромная просьба, поблагодарите релизера, оцените раздачу и оставьте свои комментарий, если Вы скачали Старые шпионские игры через торрент бесплатно! Внесите свою лепту в развитие PiratBit!
    Комментировать посты могут только пользователи прошедшие не сложную регистрацию
    Показать сообщения:    

    Старые шпионские игры через торрент
    Скачать бесплатно Старые шпионские игры
    Старые шпионские игры скачать торрент
    Старые шпионские игры смотреть онлайн
    Cкачать фильм Старые шпионские игры бесплатно
    Старые шпионские игры скачать торрент в хорошем качестве
    Старые шпионские игры смотреть онлайн бесплатно в хорошем качестве


    Вы не можете начинать темы
    Вы не можете отвечать на сообщения
    Вы не можете редактировать свои сообщения
    Вы не можете удалять свои сообщения
    Вы не можете голосовать в опросах
    Вы не можете прикреплять файлы к сообщениям
    Вы можете скачивать файлы