Ссылка на приватное зеркало нашего сайта всего за 1$. Внимание количество ограничено!!!

2 сезон

iTunes

1 сезон

1

2 сезон

2 сезон

iTunes

1 сезон

RePack

30

Ultimate

ВАЖНО

ИГРА 18+

pack

RePack

MK11
pack

Забери бонус

RePack

jed

!!Акция!!

Alien_Rage

RePack

fifa19

RePack

Assassins Creed: Odyssey

RePack

NEED FOR SPEED™ PAYBACK

4 сезон

9 сезон

Бесстыжие 9 сезон

Все сериалы

все сериалы на PB.wtf

RePack

FAR CRY 5
  

Гринч в 3D / The Grinch in 3D (Ярроу Чейни, Скотт Моужер) [2018 г., мультфильм, фэнтези, комедия, семейный, BDRip 1080p, Дубляж BD CEE] Анаглиф (Дюбуа) pb.wtf

Гринч в 3D через торрент pb.wtf

Размер: 5.46 GB | Добавлен: 10 мес. назад | Торрент скачан:6 раз
Скачать  

06-01-2020 13:37 Гринч в 3D Скачать торрент  

Гринч в 3D / The Grinch in 3D
Год выпуска: 2018
Страна: Франция, Китай, Япония, США
Жанр: мультфильм, фэнтези, комедия, семейный
Продолжительность: 01:25:50
Перевод: Дубляж BD CEE
Субтитры: Русские, украинские, английские

Режиссер: Ярроу Чейни, Скотт Моужер

Бюджет: $75 000 000
Премьера в мире: 8 ноября 2018 (13 декабря 2018)

rating

В ролях: Бенедикт Камбербэтч, Кэмерон Сили, Рашида Джонс, Фаррелл Уильямс, Тристан О`Хара, Кенан Томпсон, Сэм Лаваньино, Рамон Хэмилтон, Анджела Лэнсбери, Скарлет Эстевез, Майкл Битти, Лори Алан, Ивэн Кишияма

Описание: Любой бы на месте Гринча позеленел и взбесился. Как порядочный интроверт он живёт в тёмной пещере на самой вершине горы подальше ото всех, но эти «все» готовят грандиознейшее празднование Нового года. Они шумят, всё украшают и дико бесят. Кто бы отказал себе в удовольствии испортить праздник? Гринч решает украсть Новый год.

Доп. информация: Формат 3D: Анаглиф (Дюбуа)



Качество: BDRip 1080p
Формат: MKV
Видео кодек: H.264
Аудио кодек: AC3
Видео: AVC, 1920x1080 (16:9), 7819 kbps, 23,976 fps, 0.157 bpp
Аудио#1: Русский / AC3 / 48 KHz / 5.1 ch / 640 Kbps (Дубляж - BD CEE)
Аудио#2: Украинский / AC3 / 48 KHz / 2 ch / 192 Kbps (Дубляж) (Спасибо Hurtom!)
Аудио#3: Английский / AC3 / 48 KHz / 5.1 ch / 448 Kbps (Original - BD 3D Eur)


скриншот   скриншот   скриншот   скриншот   скриншот  
x264 [info]: frame I:1123 Avg QP: 9.51 size:263702 PSNR Mean Y:53.72 U:54.55 V:53.90 Avg:53.87 Global:53.56
x264 [info]: frame P:34787 Avg QP:12.42 size: 78117 PSNR Mean Y:51.12 U:51.82 V:51.00 Avg:51.19 Global:50.66
x264 [info]: frame B:87561 Avg QP:15.52 size: 23068 PSNR Mean Y:50.24 U:50.92 V:49.65 Avg:50.20 Global:49.71
x264 [info]: consecutive B-frames: 3.9% 6.4% 12.6% 46.9% 30.2%


Общее
Уникальный идентификатор : 249572872081867801559188750554509020149 (0xBBC1FC9CA031D3CD8D8E60E8D9A70BF5)
Полное имя : E:\Temp\TheGrinch(2018)3D(Anaglyph_Dubois).mkv
Формат : Matroska
Версия формата : Version 4
Размер файла : 5,46 Гбайт
Продолжительность : 1 ч. 25 м.
Общий поток : 9102 Кбит/сек
Название фильма : Гринч / The Grinch (2018) in 3D (Anaglyph_Dubois)
Дата кодирования : UTC 2019-06-17 16:11:03
Программа кодирования : mkvmerge v12.0.0 ('Trust / Lust') 64bit
Библиотека кодирования : libebml v1.3.4 + libmatroska v1.4.5

Видео
Идентификатор : 1
Формат : AVC
Формат/Информация : Advanced Video Codec
Профиль формата : High@L4.1
MultiView_Count : 2
MultiView_Layout : Anaglyph (cyan/red)
Настройки формата : CABAC / 4 Ref Frames
Параметр CABAC формата : Да
Параметр RefFrames формата : 4 кадра
Идентификатор кодека : V_MPEG4/ISO/AVC
Продолжительность : 1 ч. 25 м.
Битрейт : 7819 Кбит/сек
Ширина : 1920 пикселей
Высота : 1080 пикселей
Соотношение сторон : 16:9
Режим частоты кадров : Постоянный
Частота кадров : 23,976 кадра/сек
Цветовое пространство : YUV
Субдискретизация насыщенности : 4:2:0
Битовая глубина : 8 бит
Тип развёртки : Прогрессивная
Бит/(Пиксели*Кадры) : 0.157
Размер потока : 4,69 Гбайт (86%)
Заголовок : slaventi-69 ( R.G. HD-Films ) 3Д (Anaglyph_Dubois)
Библиотека кодирования : x264 core 130 r2273 b3065e6
Настройки программы : cabac=1 / ref=4 / deblock=1:-2:-2 / analyse=0x3:0x113 / me=umh / subme=9 / psy=1 / psy_rd=1.00:0.00 / mixed_ref=1 / me_range=24 / chroma_me=1 / trellis=2 / 8x8dct=1 / cqm=0 / deadzone=21,11 / fast_pskip=1 / chroma_qp_offset=-2 / threads=10 / lookahead_threads=2 / sliced_threads=0 / nr=0 / decimate=1 / interlaced=0 / bluray_compat=0 / constrained_intra=0 / bframes=4 / b_pyramid=2 / b_adapt=2 / b_bias=0 / direct=2 / weightb=1 / open_gop=0 / weightp=2 / keyint=250 / keyint_min=23 / scenecut=40 / intra_refresh=0 / rc_lookahead=40 / rc=crf / mbtree=1 / crf=15.5 / qcomp=0.60 / qpmin=0 / qpmax=69 / qpstep=4 / ip_ratio=1.40 / aq=1:1.00
Язык : English
Default : Да
Forced : Нет

Аудио #1
Идентификатор : 2
Формат : AC-3
Формат/Информация : Audio Coding 3
Коммерческое название : Dolby Digital
Идентификатор кодека : A_AC3
Продолжительность : 1 ч. 25 м.
Вид битрейта : Постоянный
Битрейт : 640 Кбит/сек
Каналы : 6 каналов
Channel layout : L R C LFE Ls Rs
Частота : 48,0 КГц
Частота кадров : 31,250 кадров/сек (1536 SPF)
Битовая глубина : 16 бит
Метод сжатия : С потерями
Размер потока : 393 Мбайт (7%)
Заголовок : Дубляж (BD 3D CEE)
Язык : Russian
ServiceKind/String : Complete Main
Default : Да
Forced : Нет

Аудио #2
Идентификатор : 3
Формат : AC-3
Формат/Информация : Audio Coding 3
Коммерческое название : Dolby Digital
Идентификатор кодека : A_AC3
Продолжительность : 1 ч. 25 м.
Вид битрейта : Постоянный
Битрейт : 192 Кбит/сек
Каналы : 2 канала
Channel layout : L R
Частота : 48,0 КГц
Частота кадров : 31,250 кадров/сек (1536 SPF)
Битовая глубина : 16 бит
Метод сжатия : С потерями
Размер потока : 118 Мбайт (2%)
Заголовок : Дубляж
Язык : Ukrainian
ServiceKind/String : Complete Main
Default : Нет
Forced : Нет

Аудио #3
Идентификатор : 4
Формат : AC-3
Формат/Информация : Audio Coding 3
Коммерческое название : Dolby Digital
Идентификатор кодека : A_AC3
Продолжительность : 1 ч. 25 м.
Вид битрейта : Постоянный
Битрейт : 448 Кбит/сек
Каналы : 6 каналов
Channel layout : L R C LFE Ls Rs
Частота : 48,0 КГц
Частота кадров : 31,250 кадров/сек (1536 SPF)
Битовая глубина : 16 бит
Метод сжатия : С потерями
Размер потока : 275 Мбайт (5%)
Заголовок : Original (BD 3D Eur)
Язык : English
ServiceKind/String : Complete Main
Default : Нет
Forced : Нет

Текст #1
Идентификатор : 5
Формат : UTF-8
Идентификатор кодека : S_TEXT/UTF8
Идентификатор кодека/Информация : UTF-8 Plain Text
Продолжительность : 1 ч. 17 м.
Битрейт : 2 бит/сек
ElementCount : 34
Размер потока : 1,24 Кбайт (0%)
Заголовок : Форсированные [Ash61 (v3)]
Язык : Russian
Default : Да
Forced : Нет

Текст #2
Идентификатор : 6
Формат : UTF-8
Идентификатор кодека : S_TEXT/UTF8
Идентификатор кодека/Информация : UTF-8 Plain Text
Продолжительность : 1 ч. 25 м.
Битрейт : 61 бит/сек
ElementCount : 992
Размер потока : 38,7 Кбайт (0%)
Заголовок : Полные
Язык : Russian
Default : Нет
Forced : Нет

Текст #3
Идентификатор : 7
Формат : UTF-8
Идентификатор кодека : S_TEXT/UTF8
Идентификатор кодека/Информация : UTF-8 Plain Text
Продолжительность : 1 ч. 17 м.
Битрейт : 1 бит/сек
ElementCount : 27
Размер потока : 1,13 Кбайт (0%)
Заголовок : Форсированные [Крук]
Язык : Ukrainian
Default : Нет
Forced : Нет

Текст #4
Идентификатор : 8
Формат : UTF-8
Идентификатор кодека : S_TEXT/UTF8
Идентификатор кодека/Информация : UTF-8 Plain Text
Продолжительность : 1 ч. 17 м.
Битрейт : 52 бит/сек
ElementCount : 1024
Размер потока : 30,0 Кбайт (0%)
Заголовок : Full
Язык : English
Default : Нет
Forced : Нет

Текст #5
Идентификатор : 9
Формат : UTF-8
Идентификатор кодека : S_TEXT/UTF8
Идентификатор кодека/Информация : UTF-8 Plain Text
Продолжительность : 1 ч. 20 м.
Битрейт : 61 бит/сек
ElementCount : 1304
Размер потока : 36,1 Кбайт (0%)
Заголовок : SDH (BD 3D Eur)
Язык : English
Default : Нет
Forced : Нет

Меню
00:00:00.000 : :1
00:05:40.298 : :2
00:10:35.927 : :3
00:14:14.103 : :4
00:17:45.106 : :5
00:22:19.296 : :6
00:26:28.337 : :7
00:30:45.093 : :8
00:34:46.584 : :9
00:38:37.190 : :10
00:44:40.595 : :11
00:47:27.678 : :12
00:52:37.488 : :13
00:56:33.181 : :14
01:01:04.995 : :15
01:05:34.639 : :16
01:07:23.456 : :17
01:12:14.914 : :18
01:14:12.782 : :19
01:18:08.309 : :20

pb.wtf



Скачать Гринч в 3D через торрент https://b.radikal.ru/b04/1902/d9/f06294ab697f.png Скачать фильм Гринч в 3D через торрент бесплантно в хорошем качестве Описание: Любой бы на месте Гринча позеленел и взбесился. Как порядочный интроверт он живёт в тёмной пещере на самой вершине горы подальше ... 10 10 1
Торрент: Зарегистрирован [2020-01-06 13:37] · скачан: 6 раз
Статус: √ проверено
Размер: 5.46 GB
Как cкачать? Как скачать Гринч в 3D через торрент | qTorrent

% Раздел Тема Автор DL S | L
3D Мультфильмы [ 8.74 GB ] Гринч в 3Д / The Grinch 3D [2018 мультфильм BDRip 1080p] [-лицензия] serega768 Скачать
1 | 0
3D Мультфильмы [ 5.79 GB ] Гринч в 3Д / The Grinch 3D [2018 мультфильм BDRip 1080p] + 2xMVO sheker187 Скачать
2 | 0

28-11-2019 20:33  

Отключить всю рекламу на сайте

14-10-2020 18:38 Гринч в 3D Скачать торрент  

Не один фильм не скачается(((pb.wtf



    Дорогой пользователь! Огромная просьба, поблагодарите релизера, оцените раздачу и оставьте свои комментарий, если Вы скачали Гринч в 3D через торрент бесплатно! Внесите свою лепту в развитие PiratBit!
    Комментировать посты могут только пользователи прошедшие не сложную регистрацию
    Показать сообщения:    

    Гринч в 3D через торрент
    Скачать бесплатно Гринч в 3D
    Гринч в 3D скачать торрент
    Гринч в 3D смотреть онлайн
    Cкачать фильм Гринч в 3D бесплатно
    Гринч в 3D скачать торрент в хорошем качестве
    Гринч в 3D смотреть онлайн бесплатно в хорошем качестве


    Вы не можете начинать темы
    Вы не можете отвечать на сообщения
    Вы не можете редактировать свои сообщения
    Вы не можете удалять свои сообщения
    Вы не можете голосовать в опросах
    Вы не можете прикреплять файлы к сообщениям
    Вы можете скачивать файлы