2 сезон

iTunes

MVO

1

2 сезон

iTunes

iTunes

1 сезон

RePack

30

Новинка

ВАЖНО

ИГРА 18+

pack

RePack

MK11
pack

Легкие деньги

RePack

jed

RePack

fifa19

RePack

RDR2

RePack

NEED FOR SPEED™ PAYBACK

4 сезон

9 сезон

Бесстыжие 9 сезон

Все сериалы

все сериалы на PB.wtf

RePack

FAR CRY 5

Anonymous, добрый вечер, мы не успеваем собрать деньги на оплату серверов за декабрь и январь, помогите нам пожалуйста в это трудное время. В качестве благодарности мы отключим Вам всю рекламу на сайте (укажите свой ник в строку Ваше имя)!

×
  
Magnet ссылка

Сделай шаг: Лови момент 3Д / Make Your Move 3D (Дуан Адлер) [2013, мелодрама, музыка, BDRip 1080p, (Half OverUnder)] DUB pb.wtf

Сделай шаг: Лови момент 3Д через торрент pb.wtf

Размер: 13.79 GB | Добавлен: 1 год назад | Торрент скачан:12 раз
Скачать  

06-01-2020 15:57 Сделай шаг: Лови момент 3Д Скачать торрент  

Сделай шаг: Лови момент 3Д
Make Your Move 3D

«Танец - повод для знакомства»

Год выпуска: 2013
Страна: США, Корея Южная
Жанр: мелодрама, музыка
Продолжительность: 01:50:10
Перевод: Дублированный
Субтитры:
Вшитые (softsub):
#1 - Русские Форсированные (включены по умолчанию)
#2 - English Forced
#3 - English Full
#4 - English SDH
#5 - German Forced

Внешние (UTF-8):
#1 - Русские Форсированные (включены по умолчанию)

Режиссер: Дуан Адлер

rating

В ролях: БоА, Дерек Хаф, Уилл Юн Ли, Уэсли Джонатан, Изабелла Мико, Майкл Мэндо, Рик Гонзалез, Дэн Лория, Эллисон Холкер, Джефферсон Браун, Мики Исикава, Мэри Эштон, Сатори Ксай Лоренцо, Рич Тинг, Лори Энн Олтер, Уоррен Белль, Шон Байфилд, Джонни Кейнс, Томми Чанг, Эндрю Черч, Ральф деГрут, Юн Хо Чон

Описание: История о двух танцорах, которые выросли в разных условиях. Но оба они окажутся в Нью-Йорке и будут работать вместе в клубе. Между ними соперничество, но, когда двое влюбляются, история превращается в историю Ромео и Джульетты.

Качество: BDRip 1080p
Формат: MKV

Видео: AVC / 1920х1080p / 23,976 fps / 16.0 Mbps
Аудио#1: Русский / AC3 / 48 KHz / 5.1 ch / 640 Kbps (Дубляж) (перемонтаж из стерео в 5.1)
Аудио#2: Английский / AC3 / 48 KHz / 5.1 ch / 640 Kbps (Original - BD 3D Ger)
Аудио#3: Немецкий / AC3 / 48 KHz / 5.1 ch / 640 Kbps (Dubbing - BD 3D Ger)
Формат 3D: Half OverUnder / Вертикальная анаморфная стереопара
Порядок ракурсов: левый ракурс первый
скриншот  скриншот  скриншот  скриншот  скриншот  

скриншот  скриншот  скриншот  скриншот  скриншот  

General
Unique ID : 193078406037885722174531635853917128587 (0x91418C62A69C82419853FA1050CF878B)
Complete name : D:MakeYourMove(2013)3D-hOU(Ash61)MakeYourMove(2013)3D-hOU(Ash61).mkv
Format : Matroska
Format version : Version 2
File size : 13.8 GiB
Duration : 1 h 50 min
Overall bit rate : 17.9 Mb/s
Movie name : Сделай шаг: Лови момент / Make Your Move (Born to Dance) (2013) in 3D
Encoded date : UTC 2019-09-10 15:57:25
Writing application : mkvmerge v5.8.0 ('No Sleep / Pillow') built on Sep 2 2012 15:37:04
Writing library : libebml v1.2.3 + libmatroska v1.3.0

Video
ID : 1
Format : AVC
Format/Info : Advanced Video Codec
Format profile : High@L4.1
Format settings : CABAC / 4 Ref Frames
Format settings, CABAC : Yes
Format settings, Reference : 4 frames
Codec ID : V_MPEG4/ISO/AVC
Duration : 1 h 50 min
Bit rate : 16.0 Mb/s
Width : 1 920 pixels
Height : 1 080 pixels
Display aspect ratio : 16:9
Frame rate mode : Constant
Frame rate : 23.976 (24000/1001) FPS
Color space : YUV
Chroma subsampling : 4:2:0
Bit depth : 8 bits
Scan type : Progressive
Bits/(Pixel*Frame) : 0.322
Stream size : 12.0 GiB (87%)
Title : BDRip by Ash61 (исх - BD 3D Ger)
Writing library : x264 core 146 r2538 121396c
Encoding settings : cabac=1 / ref=4 / deblock=1:-3:-3 / analyse=0x3:0x113 / me=umh / subme=10 / psy=1 / psy_rd=1.00:0.00 / mixed_ref=1 / me_range=32 / chroma_me=1 / trellis=2 / 8x8dct=1 / cqm=0 / deadzone=21,11 / fast_pskip=0 / chroma_qp_offset=-2 / threads=12 / lookahead_threads=2 / sliced_threads=0 / nr=0 / decimate=0 / interlaced=0 / bluray_compat=0 / constrained_intra=0 / bframes=8 / b_pyramid=2 / b_adapt=2 / b_bias=0 / direct=3 / weightb=1 / open_gop=0 / weightp=2 / keyint=250 / keyint_min=23 / scenecut=40 / intra_refresh=0 / rc_lookahead=60 / rc=2pass / mbtree=0 / bitrate=16000 / ratetol=1.0 / qcomp=0.70 / qpmin=0 / qpmax=69 / qpstep=4 / cplxblur=20.0 / qblur=0.5 / vbv_maxrate=40000 / vbv_bufsize=30000 / nal_hrd=none / filler=0 / frame-packing=4 / ip_ratio=1.40 / pb_ratio=1.30 / aq=1:0.70
Language : English
Default : Yes
Forced : No

Audio #1
ID : 2
Format : AC-3
Format/Info : Audio Coding 3
Commercial name : Dolby Digital
Codec ID : A_AC3
Duration : 1 h 50 min
Bit rate mode : Constant
Bit rate : 640 kb/s
Channel(s) : 6 channels
Channel layout : L R C LFE Ls Rs
Sampling rate : 48.0 kHz
Frame rate : 31.250 FPS (1536 SPF)
Compression mode : Lossy
Stream size : 504 MiB (4%)
Title : Дубляж (перемонтаж из стерео в 5.1 - Ash61)
Language : Russian
Service kind : Complete Main
Default : Yes
Forced : No

Audio #2
ID : 3
Format : AC-3
Format/Info : Audio Coding 3
Commercial name : Dolby Digital
Codec ID : A_AC3
Duration : 1 h 50 min
Bit rate mode : Constant
Bit rate : 640 kb/s
Channel(s) : 6 channels
Channel layout : L R C LFE Ls Rs
Sampling rate : 48.0 kHz
Frame rate : 31.250 FPS (1536 SPF)
Compression mode : Lossy
Stream size : 504 MiB (4%)
Title : Original (BD 3D Ger)
Language : English
Service kind : Complete Main
Default : No
Forced : No

Audio #3
ID : 4
Format : AC-3
Format/Info : Audio Coding 3
Commercial name : Dolby Digital
Codec ID : A_AC3
Duration : 1 h 50 min
Bit rate mode : Constant
Bit rate : 640 kb/s
Channel(s) : 6 channels
Channel layout : L R C LFE Ls Rs
Sampling rate : 48.0 kHz
Frame rate : 31.250 FPS (1536 SPF)
Compression mode : Lossy
Stream size : 504 MiB (4%)
Language : German
Service kind : Complete Main
Default : No
Forced : No

Text #1
ID : 5
Format : UTF-8
Codec ID : S_TEXT/UTF8
Codec ID/Info : UTF-8 Plain Text
Title : Форсированные
Language : Russian
Default : Yes
Forced : No

Text #2
ID : 6
Format : UTF-8
Codec ID : S_TEXT/UTF8
Codec ID/Info : UTF-8 Plain Text
Title : Forced
Language : English
Default : No
Forced : No

Text #3
ID : 7
Format : UTF-8
Codec ID : S_TEXT/UTF8
Codec ID/Info : UTF-8 Plain Text
Title : Full
Language : English
Default : No
Forced : No

Text #4
ID : 8
Format : UTF-8
Codec ID : S_TEXT/UTF8
Codec ID/Info : UTF-8 Plain Text
Title : SDH
Language : English
Default : No
Forced : No

Text #5
ID : 9
Format : UTF-8
Codec ID : S_TEXT/UTF8
Codec ID/Info : UTF-8 Plain Text
Title : Forced
Language : German
Default : No
Forced : No

Menu
00:00:00.000 : :1
00:11:21.389 : :2
00:20:06.789 : :3
00:29:17.714 : :4
00:39:41.713 : :5
00:51:47.271 : :6
01:03:04.572 : :7
01:13:21.522 : :8
01:21:23.837 : :9
01:33:08.583 : :10
01:44:04.613 : :11

pb.wtf



Скачать Сделай шаг: Лови момент 3Д через торрент https://a.radikal.ru/a33/2001/84/4a505356a6a0.png Скачать фильм Сделай шаг: Лови момент 3Д через торрент бесплантно в хорошем качестве Описание: История о двух танцорах, которые выросли в разных условиях. Но оба они окажутся в Нью-Йорке и будут работать вместе в клубе. ... 10 10 2
Торрент: Зарегистрирован [2020-01-06 15:57] · скачан: 12 раз
Статус: √ проверено
Размер: 13.79 GB
Как cкачать? Как скачать Сделай шаг: Лови момент 3Д через торрент | UTorrent

28-11-2019 20:33  

Отключить всю рекламу на сайте

    Дорогой пользователь! Огромная просьба, поблагодарите релизера, оцените раздачу и оставьте свои комментарий, если Вы скачали Сделай шаг: Лови момент 3Д через торрент бесплатно! Внесите свою лепту в развитие PiratBit!
    Комментировать посты могут только пользователи прошедшие не сложную регистрацию
    Показать сообщения:    

    Сделай шаг: Лови момент 3Д через торрент
    Скачать бесплатно Сделай шаг: Лови момент 3Д
    Сделай шаг: Лови момент 3Д скачать торрент
    Сделай шаг: Лови момент 3Д смотреть онлайн
    Cкачать фильм Сделай шаг: Лови момент 3Д бесплатно
    Сделай шаг: Лови момент 3Д скачать торрент в хорошем качестве
    Сделай шаг: Лови момент 3Д смотреть онлайн бесплатно в хорошем качестве


    Вы не можете начинать темы
    Вы не можете отвечать на сообщения
    Вы не можете редактировать свои сообщения
    Вы не можете удалять свои сообщения
    Вы не можете голосовать в опросах
    Вы не можете прикреплять файлы к сообщениям
    Вы можете скачивать файлы