Ссылка на приватное зеркало всего за 1$. Внимание количество ограничено!!!

iTunes

iTunes

iTunes

1

iTunes

iTunes

iTunes

iTunes

iTunes

30
pack

$ от Little Big

ВАЖНО

!!Акция!!

Alien_RageХит недели

RePack

Resident Evil 21

ИГРА 18+

pack

RePack

jed

!!Акция!!

Alien_Rage

RePack

fifa19

RePack

Assassins Creed: Odyssey

RePack

NEED FOR SPEED™ PAYBACK

4 сезон

9 сезон

Бесстыжие 9 сезон

Все сериалы

все сериалы на PB.wtf

RePack

FAR CRY 5
  

Я потеряла своё тело / J'ai perdu mon corps / I Lost My Body (Жереми Клапен) [2019, Мультфильм, драма, полнометражный, WEB-DLRip 1080p] [VO] (datynet) pb.wtf

Я потеряла своё тело через торрент pb.wtf

Размер: 1.16 GB | Добавлен: 5 мес. 28 д. назад | Торрент скачан:110 раз
Скачать  

06-01-2020 16:55 Я потеряла своё тело Скачать торрент  

Я потеряла своё тело / J'ai perdu mon corps / I Lost My Body Год выпуска: 2019
Страна: Франция
Жанр: Мультфильм, драма, полнометражный
Продолжительность: 01:21:14
Перевод: Любительский (одноголосый закадровый) datynet
Субтитры: нет

Режиссер: Жереми Клапен / Jérémy Clapin

В ролях: Хаким Фарис, Виктуар Дю Буа, Патрик д’Асумсао, Джордж Уэндт, Альфонсо Арфи, Хайсем Месба, Мириам Лусиф, Белламин Абдельмалек, Мод Ле Гюнедаль, Николь Фавар, Кентин Байо

Описание: История Науфеля, который влюблён в Габриэль. А в другой части города отрубленная рука убегает из лаборатории, решив снова найти своё тело.

rating
Сэмпл: https://yadi.sk/i/_m74LLmGVglvgg

Качество видео: WEB-DL 1080p
Формат видео: MKV

Видео: MPEG-4 AVC, 1920x1080, 16:9, 24,000 кадра/сек, 2043 Кбит/сек
Аудио: MP3, 48,0 КГц, 192 Кбит/с, 2 канала
Каннский кинофестиваль, 2019 год
Победитель (1): Награда от прессы
Номинации (1): Золотая камера (награда за режиссерский дебют) (Жереми Клапен)
Формат                                   : Matroska
Версия формата : Version 4 / Version 2
Размер файла : 1,16 Гбайт
Продолжительность : 1 ч. 21 м.
Режим общего битрейта : Переменный
Общий поток : 2043 Кбит/сек
Дата кодирования : UTC 2019-11-29 12:30:13
Программа кодирования : mkvmerge v33.1.0 ('Primrose') 64-bit
Библиотека кодирования : libebml v1.3.7 + libmatroska v1.5.0
DURATION : 01:21:14.664000000
NUMBER_OF_FRAMES : 203111
NUMBER_OF_BYTES : 116991936
_STATISTICS_WRITING_APP : mkvmerge v33.1.0 ('Primrose') 64-bit
_STATISTICS_WRITING_DATE_UTC : 2019-11-29 12:30:13
_STATISTICS_TAGS : BPS DURATION NUMBER_OF_FRAMES NUMBER_OF_BYTES

Видео
Идентификатор : 1
Формат : AVC
Формат/Информация : Advanced Video Codec
Профиль формата : Main@L4.0
Параметр CABAC формата : Да
Параметр ReFrames формата : 3 кадра
Идентификатор кодека : V_MPEG4/ISO/AVC
Продолжительность : 1 ч. 21 м.
Вид битрейта : Переменный
Битрейт : 1870 Кбит/сек
Максимальный битрейт : 2805 Кбит/сек
Ширина : 1920 пикселей
Высота : 1080 пикселей
Соотношение сторон : 16:9
Режим частоты кадров : Постоянный
Частота кадров : 24,000 кадра/сек
Цветовое пространство : YUV
Субдискретизация насыщенности : 4:2:0
Битовая глубина : 8 бит
Тип развёртки : Прогрессивная
Бит/(Пиксели*Кадры) : 0.038
Размер потока : 1,03 Гбайт (89%)
Библиотека кодирования : x264 core 148 r2715 7e75228
Настройки программы : cabac=1 / ref=3 / deblock=1:0:0 / analyse=0x1:0x111 / me=umh / subme=10 / psy=1 / psy_rd=1.00:0.00 / mixed_ref=1 / me_range=24 / chroma_me=1 / trellis=2 / 8x8dct=0 / cqm=0 / deadzone=21,11 / fast_pskip=1 / chroma_qp_offset=-2 / threads=8 / lookahead_threads=1 / sliced_threads=0 / nr=0 / decimate=1 / interlaced=0 / bluray_compat=0 / stitchable=1 / constrained_intra=0 / bframes=2 / b_pyramid=0 / b_adapt=2 / b_bias=0 / direct=3 / weightb=1 / open_gop=0 / weightp=2 / keyint=250 / keyint_min=24 / scenecut=0 / intra_refresh=0 / rc_lookahead=48 / rc=2pass / mbtree=1 / bitrate=1870 / ratetol=1.0 / qcomp=0.50 / qpmin=6 / qpmax=51 / qpstep=4 / cplxblur=20.0 / qblur=0.5 / vbv_maxrate=2805 / vbv_bufsize=3740 / nal_hrd=vbr / filler=0 / ip_ratio=1.40 / aq=1:1.00
Default : Да
Forced : Нет

Аудио
Идентификатор : 2
Формат : MPEG Audio
Версия формата : Version 1
Профиль формата : Layer 3
Режим : Joint stereo
Идентификатор кодека : A_MPEG/L3
Идентификатор кодека/Подсказка : MP3
Продолжительность : 1 ч. 21 м.
Вид битрейта : Постоянный
Битрейт : 192 Кбит/сек
Каналы : 2 канала
Частота : 48,0 КГц
Метод сжатия : С потерями
Размер потока : 112 Мбайт (9%)
Default : Да
Forced : Нет
скриншот   скриншот   скриншот  
pb.wtf



Скачать Я потеряла своё тело через торрент https://i111.fastpic.ru/big/2020/0106/98/67bd502141b36bc3c4ca90752fe58d98.jpg Скачать фильм Я потеряла своё тело через торрент бесплантно в хорошем качестве Описание: История Науфеля, который влюблён в Габриэль. А в другой части города отрубленная рука убегает из лаборатории, решив снова найти ... 6.1 10 7
Торрент: Зарегистрирован [2020-01-06 16:55] · скачан: 110 раз
Статус: T временная
Размер: 1.16 GB
Как cкачать? Как скачать Я потеряла своё тело через торрент | qTorrent



Последний раз редактировалось: killermax2013 (2020-01-07 10:01), всего редактировалось 1 раз

28-11-2019 20:33  

Отключить всю рекламу на сайте

    Дорогой пользователь! Огромная просьба, поблагодарите релизера, оцените раздачу и оставьте свои комментарий, если Вы скачали Я потеряла своё тело через торрент бесплатно! Внесите свою лепту в развитие PiratBit!
    Комментировать посты могут только пользователи прошедшие не сложную регистрацию
    Показать сообщения:    

    Я потеряла своё тело через торрент
    Скачать бесплатно Я потеряла своё тело
    Я потеряла своё тело скачать торрент
    Я потеряла своё тело смотреть онлайн
    Cкачать фильм Я потеряла своё тело бесплатно
    Я потеряла своё тело скачать торрент в хорошем качестве
    Я потеряла своё тело смотреть онлайн бесплатно в хорошем качестве


    Вы не можете начинать темы
    Вы не можете отвечать на сообщения
    Вы не можете редактировать свои сообщения
    Вы не можете удалять свои сообщения
    Вы не можете голосовать в опросах
    Вы не можете прикреплять файлы к сообщениям
    Вы можете скачивать файлы