Ссылка на приватное зеркало нашего сайта всего за 1$. Внимание количество ограничено!!!

2 сезон

iTunes

1 сезон

1

iTunes

iTunes

iTunes

1 сезон

RePack

30

ИГРА 18+

pack

ВАЖНО

!!Акция!!

Alien_RageХит недели

RePack

MK11
pack

Забери бонус

RePack

jed

!!Акция!!

Alien_Rage

RePack

fifa19

RePack

Assassins Creed: Odyssey

RePack

NEED FOR SPEED™ PAYBACK

4 сезон

9 сезон

Бесстыжие 9 сезон

Все сериалы

все сериалы на PB.wtf

RePack

FAR CRY 5
  

Принцесса-лягушка / Серии: 1-4 из 4 (Роман Ткаченко) [2018, Мелодрама, WEB-DL 720p] pb.wtf

Принцесса-лягушка через торрент pb.wtf

Размер: 4.45 GB | Добавлен: 9 мес. назад | Торрент скачан:32 раза
Скачать  

06-01-2020 18:05 Принцесса-лягушка Скачать торрент  

Принцесса-лягушка Год выпуска: 2018
Страна: Украина
Жанр: Мелодрама
Продолжительность: ~ 00:44:00
Перевод: Не требуется
Субтитры: отсутствуют

Режиссер: Роман Ткаченко



В ролях: Дарья Храмцова, Андрей Исаенко, Мария Тарасова (II), Галина Кобзарь-Слободюк, Сергей Дзялик, Ольга Голдыс, Богдан Буйлук, Юлия Амелькина, Кристина Киселёва, Владлена Марчак, Христина Мыкытин, Елена Светлицкая, Борис Абрамов, Геннадий Василенко, Владислав Писаренко, Ася Белая, Анастасия Нестеренко, Дарина Панасенко, Владимир Канивец, Мирослава Филиппович, София Ковалёва (II), Борис Смирнов (II), Вячеслав Василюк, Марина Куклина

Описание: Весьма молодая и красивая дочь миллионера Ирина славится своими эксцентричными выходками. Самая громкая из них – побег с собственной свадьбы. И причины на то у Иры были: жених был застукан на измене. Ира хочет поменять свою жизнь и уезжает в глухое село, пожить у бабушки. Правда, девушке пока невдомёк: чтобы начать всё с чистого листа, нужно изменить и свой характер. А к этому Ира как раз не готова. Девушке предстоит пройти перевоспитание жизнью, встретиться с семейными тайными, разобраться со скелетами в шкафах, чтобы понять, что сопротивляться судьбе бесполезно...

Качество: WEB-DL 720p
Формат: MKV

Видео: MPEG-4 AVC, ~ 3500 Кбит/с, 1280х720, 25 кадр/с
Аудио: 48.0 kHz, AC3 Dolby Digital, 2/0 (L,R) ch, ~ 192 kbps
скриншот   скриншот   скриншот   скриншот  

General
Unique ID : 10317253110778084233278832091155408068 (0x7C307DA0DC60BC76394E199E1D024C4)
Complete name : C:01.Принцесса Лягушка.(2018).WEB-DL (720p).by.Nicodem.Files-x.mkv
Format : Matroska
File size : 1.11 GiB
Duration : 43mn 0s
Overall bit rate : 3 708 Kbps
Writing application : Lavf56.36.100
Writing library : Lavf56.36.100

Video
ID : 1
Format : AVC
Format/Info : Advanced Video Codec
Format profile : High@L4.1
Format settings, CABAC : Yes
Format settings, ReFrames : 5 frames
Codec ID : V_MPEG4/ISO/AVC
Duration : 43mn 0s
Bit rate : 3 500 Kbps
Width : 1 280 pixels
Height : 720 pixels
Display aspect ratio : 16:9
Frame rate mode : Variable
Frame rate : 25.000 fps
Color space : YUV
Chroma subsampling : 4:2:0
Bit depth : 8 bits
Scan type : Progressive
Bits/(Pixel*Frame) : 0.152
Stream size : 1.03 GiB (93%)
Writing library : x264 core 148
Encoding settings : cabac=1 / ref=5 / deblock=1:0:0 / analyse=0x3:0x113 / me=hex / subme=8 / psy=1 / psy_rd=1.00:0.00 / mixed_ref=1 / me_range=16 / chroma_me=1 / trellis=2 / 8x8dct=1 / cqm=0 / deadzone=21,11 / fast_pskip=1 / chroma_qp_offset=-2 / threads=22 / lookahead_threads=3 / sliced_threads=0 / nr=0 / decimate=1 / interlaced=0 / bluray_compat=0 / constrained_intra=0 / bframes=3 / b_pyramid=2 / b_adapt=1 / b_bias=0 / direct=3 / weightb=1 / open_gop=0 / weightp=2 / keyint=250 / keyint_min=25 / scenecut=0 / intra_refresh=0 / rc_lookahead=50 / rc=abr / mbtree=1 / bitrate=3500 / ratetol=1.0 / qcomp=0.60 / qpmin=0 / qpmax=69 / qpstep=4 / ip_ratio=1.40 / aq=1:1.00
Language : English

Audio
ID : 2
Format : AC-3
Format/Info : Audio Coding 3
Mode extension : CM (complete main)
Codec ID : A_AC3
Duration : 43mn 0s
Bit rate mode : Constant
Bit rate : 192 Kbps
Channel(s) : 2 channels
Channel positions : Front: L R
Sampling rate : 44.1 KHz
Bit depth : 16 bits
Compression mode : Lossy
Delay relative to video : 1mn 5s
Stream size : 59.1 MiB (5%)
Language : English / un

pb.wtf



Скачать Принцесса-лягушка через торрент https://i107.fastpic.ru/big/2018/1224/58/9841aef5c697d8e9540bc542ff2d7a58.jpg Скачать фильм Принцесса-лягушка через торрент бесплантно в хорошем качестве Описание: Весьма молодая и красивая дочь миллионера Ирина славится своими эксцентричными выходками. Самая громкая из них – побег с ... 10 10 5
Торрент: Зарегистрирован [2020-01-06 18:05] · скачан: 32 раз
Статус: √ проверено
Размер: 4.45 GB
Как cкачать? Как скачать Принцесса-лягушка через торрент | qTorrent

% Раздел Тема Автор DL S | L
Наши сериалы [ 2.19 GB ] Принцесса-лягушка / Серии: 1-4 из 4 [2018 Мело WEB-DLRip] bober100 Скачать
1 | 0

28-11-2019 20:33  

Отключить всю рекламу на сайте

    Дорогой пользователь! Огромная просьба, поблагодарите релизера, оцените раздачу и оставьте свои комментарий, если Вы скачали Принцесса-лягушка через торрент бесплатно! Внесите свою лепту в развитие PiratBit!
    Комментировать посты могут только пользователи прошедшие не сложную регистрацию
    Показать сообщения:    

    Принцесса-лягушка через торрент
    Скачать бесплатно Принцесса-лягушка
    Принцесса-лягушка скачать торрент
    Принцесса-лягушка смотреть онлайн
    Cкачать фильм Принцесса-лягушка бесплатно
    Принцесса-лягушка скачать торрент в хорошем качестве
    Принцесса-лягушка смотреть онлайн бесплатно в хорошем качестве


    Вы не можете начинать темы
    Вы не можете отвечать на сообщения
    Вы не можете редактировать свои сообщения
    Вы не можете удалять свои сообщения
    Вы не можете голосовать в опросах
    Вы не можете прикреплять файлы к сообщениям
    Вы можете скачивать файлы