2 сезон

iTunes

1 сезон

1

iTunes

iTunes

iTunes

1 сезон

RePack

30

ИГРА 18+

pack

ВАЖНО

!!Акция!!

Alien_RageХит недели

RePack

MK11
pack

Забери бонус

RePack

jed

!!Акция!!

Alien_Rage

RePack

fifa19

RePack

Assassins Creed: Odyssey

RePack

NEED FOR SPEED™ PAYBACK

4 сезон

9 сезон

Бесстыжие 9 сезон

Все сериалы

все сериалы на PB.wtf

RePack

FAR CRY 5
  

По разным берегам / Сезон: 1 / Серии: 1-16 из 16 (Виктор Конисевич) [2019, Драма, криминал, мелодрама, WEB-DLRip] pb.wtf

По разным берегам через торрент pb.wtf

Размер: 10.29 GB | Добавлен: 9 мес. назад | Торрент скачан:40 раз
Скачать  

06-01-2020 19:17 По разным берегам Скачать торрент  

По разным берегам
Год выпуска: 2019
Страна: Украина
Жанр: Драма, криминал, мелодрама
Продолжительность: ~ 00:50:00
Перевод: Не требуется
Субтитры: отсутствуют

Режиссер: Виктор Конисевич



В ролях: Ольга Веникова, Александр Константинов, Станислав Тикунов, Анатолий Котенёв, Татьяна Лютаева, Дмитрий Шевченко, Вера Шпак, Анна Легчилова, Вера Сотникова, Анатолий Зиновенко, Александра Парьева, Павел Алдошин, Александр Ганноченко, Владимир Ямненко, Ирина Калашникова (I), Олеся Голуб, Александра Сизоненко, Регина Быстрякова

Описание: Главная героиня – Настя Шестакова – ученый-синоптик. Она далека от бизнеса, любит наблюдать за природой и часто витает в облаках. Все резко меняется, когда ее отец – фермер Егор Иванович – попадает в серьезную аварию. Девушка вынуждена возглавить семейное сельхозпредприятие. И без того непростая ситуация усложняется тем, что извечный конкурент отца – хладнокровный бизнесмен Владимир Зорин – намерен во что бы то ни стало прибрать земли Шестаковых к своим рукам. Доброй, неконфликтной девушке непросто давать отпор нахальному цинику Зорину. Благо, что Настю поддерживает друг детства Иван, который давно тайно влюблен в нее. Парень надеется, что трудности лишь сблизят их.

Качество: WEB-DLRip
Формат: AVI

Видео: XviD, ~ 1605 Кбит/с, 720x400, 25 кадр/с
Аудио: 48.0 kHz, AC3 Dolby Digital, 2/0 (L,R) ch, ~ 192 kbps
скриншот  скриншот  скриншот  скриншот  скриншот  

General
Complete name: C:01.По разным берегам.(2019).WEB-DLRip.by.Nicodem.Files-x.avi
Format: AVI
Format/Info: Audio Video Interleave
File size: 662 MiB
Duration: 51mn 12s
Overall bit rate: 1 806 Kbps
Writing application: VirtualDubMod 1.5.10.3 | www.virtualdub-fr.org || (build 2550/release)
Writing library: VirtualDubMod build 2550/release

Video
ID: 0
Format: MPEG-4 Visual
Format profile: Advanced Simple@L5
Format settings, BVOP: 1
Format settings, QPel: No
Format settings, GMC: No warppoints
Format settings, Matrix: Custom
Codec ID: XVID
Codec ID/Hint: XviD
Duration: 51mn 12s
Bit rate: 1 605 Kbps
Width: 720 pixels
Height: 400 pixels
Display aspect ratio: 16:9
Frame rate: 25.000 fps
Color space: YUV
Chroma subsampling: 4:2:0
Bit depth: 8 bits
Scan type: Progressive
Compression mode: Lossy
Bits/(Pixel*Frame): 0.223
Stream size: 588 MiB (89%)
Writing library: XviD 73

Audio
ID: 1
Format: AC-3
Format/Info: Audio Coding 3
Mode extension: CM (complete main)
Codec ID: 2000
Duration: 51mn 12s
Bit rate mode: Constant
Bit rate: 192 Kbps
Channel(s): 2 channels
Channel positions: Front: L R
Sampling rate: 48.0 KHz
Bit depth: 16 bits
Compression mode: Lossy
Stream size: 70.3 MiB (11%)
Alignment: Split accross interleaves
Interleave, duration: 40 ms (1.00 video frame)
Interleave, preload duration: 500 ms

pb.wtf



Скачать По разным берегам через торрент https://i111.fastpic.ru/big/2019/1210/d6/27bf3bcf4cdc039d6cabbc9bd5e7f4d6.jpg Скачать фильм По разным берегам через торрент бесплантно в хорошем качестве Описание: Главная героиня – Настя Шестакова – ученый-синоптик. Она далека от бизнеса, любит наблюдать за природой и часто витает в облаках. ... 10 10 5
Торрент: Зарегистрирован [2020-01-06 19:17] · скачан: 40 раз
Статус: √ проверено
Размер: 10.29 GB
Как cкачать? Как скачать По разным берегам через торрент | qTorrent

% Раздел Тема Автор DL S | L
Наши сериалы [ 10.14 GB ] По разным берегам / Сезон: 1 / Серии: 1-16 из 16 [2019 WEB-DLRip-AVC] bober100 Скачать
1 | 0

28-11-2019 20:33  

Отключить всю рекламу на сайте

    Дорогой пользователь! Огромная просьба, поблагодарите релизера, оцените раздачу и оставьте свои комментарий, если Вы скачали По разным берегам через торрент бесплатно! Внесите свою лепту в развитие PiratBit!
    Комментировать посты могут только пользователи прошедшие не сложную регистрацию
    Показать сообщения:    

    По разным берегам через торрент
    Скачать бесплатно По разным берегам
    По разным берегам скачать торрент
    По разным берегам смотреть онлайн
    Cкачать фильм По разным берегам бесплатно
    По разным берегам скачать торрент в хорошем качестве
    По разным берегам смотреть онлайн бесплатно в хорошем качестве


    Вы не можете начинать темы
    Вы не можете отвечать на сообщения
    Вы не можете редактировать свои сообщения
    Вы не можете удалять свои сообщения
    Вы не можете голосовать в опросах
    Вы не можете прикреплять файлы к сообщениям
    Вы можете скачивать файлы