Ссылка на приватное зеркало нашего сайта всего за 1$. Внимание количество ограничено!!!

2 сезон

iTunes

1 сезон

1

2 сезон

2 сезон

iTunes

1 сезон

RePack

30

Ultimate

ВАЖНО

ИГРА 18+

pack

RePack

MK11
pack

Забери бонус

RePack

jed

!!Акция!!

Alien_Rage

RePack

fifa19

RePack

Assassins Creed: Odyssey

RePack

NEED FOR SPEED™ PAYBACK

4 сезон

9 сезон

Бесстыжие 9 сезон

Все сериалы

все сериалы на PB.wtf

RePack

FAR CRY 5
  

Обмануть всех / I Spy (Бетти Томас) [2002 г., Боевик, триллер, комедия, приключения, HDTV (1080i), Дубляж] pb.wtf

Обмануть всех через торрент pb.wtf

Размер: 5.02 GB | Добавлен: 10 мес. назад | Торрент скачан:39 раз
Скачать  

07-01-2020 12:55 Обмануть всех Скачать торрент  

Обмануть всех / I Spy
Год выпуска: 2002
Страна: США
Жанр: Боевик, триллер, комедия, приключения
Продолжительность: 01:32:37
Перевод: Дубляж
Субтитры: НЕТ

Режиссер: Бетти Томас

В ролях: Эдди Мёрфи, Оуэн Уилсон, Фамке Янссен, Малкольм МакДауэлл, Гэри Коул, Фил Льюис, Вив Ликок, Кейт Даллас, Тейт Тейлор, Линда Бойд

Описание: Мир организованной преступности бросает новый вызов. Похищен новейший самолет-невидимка, и правительство США посылает команду из двух непобедимых бойцов — суперагента Алекса Скотта и чемпиона по боксу Келли Робинсона. Необходимо во что бы то ни стало вернуть попавший в руки Арнольда Гундарса, подпольного торговца элитным вооружением, прототип истребителя нового поколения и сделать это до того, как он станет смертельной игрушкой в руках злодеев. Для этого нужно проникнуть в логово Гундарса. Прикрытием для выполнения этой отчаянной миссии должен послужить бой между Робинсоном и действующим европейским чемпионом. Чтобы удачно справиться с заданием, недостаточно просто обмануть всех — нужно для начала найти общий язык с напарником! В конце концов, все противоречия удается преодолеть, и впереди остается только одна цель — не дать взлететь «Стэлсу», снаряженному ядерным зарядом. Ради этого Келли и Алекс не остановятся ни перед чем!

Качество: HDTV (1080i)
Формат: TS
Видео кодек: AVC
Аудио кодек: AC3
Видео: MPEG-4 AVC, (1920x1080),6939 Кбит/с, 25.000 кадра/сек
Аудио#1: AC3, 6 ch, 448 kbps (Rus) 48.0 KHz Дублированный
скриншот   скриншот   скриншот  

Тип потока: Видео
Длительность: 01:32:15
Кодек: AVC
Кодек/описание: Advanced Video Codec
Кодек/профиль: Main@L4.0
Кодек/ID: 27
Кодек/CABAC: Yes
Кодек/ReFrames: 4 frames
Размеры изображения: 1920 x 1080 (16:9)
Частота кадров: 25.000 fps
Размер потока: 4.47 GiB (89%)
Битрейт: 6 939 Kbps
Битрейт/макс: 40.0 Mbps
Битрейт/тип: VBR
Цветовое пространство: YUV
Тип развёртки: Interlaced
Колориметрия: 4:2:0
Глубина: 8 bits
:
Тип потока: Звук #1
Язык: Russian
Длительность: 01:32:19.072
Кодек: AC-3
Кодек/описание: Audio Coding 3
Кодек/ID: 129
Частота дискретизации: 48.0 KHz
Каналов: 6 channels
Битрейт: 448 Kbps
Битрейт/тип: Constant
Размер потока: 296 MiB (6%)
Глубина: 16 bits
Метод сжатия: Lossy

pb.wtf



Скачать Обмануть всех через торрент http://pic1.kartinco.top/images/12/3n6fu.jpg Скачать фильм Обмануть всех через торрент бесплантно в хорошем качестве Описание: Мир организованной преступности бросает новый вызов. Похищен новейший самолет-невидимка, и правительство США посылает команду из ... 8 10 8
Торрент: Зарегистрирован [2020-01-07 12:55] · скачан: 39 раз
Статус: √ проверено
Размер: 5.02 GB
Как cкачать? Как скачать Обмануть всех через торрент | qTorrent

28-11-2019 20:33  

Отключить всю рекламу на сайте

07-01-2020 17:42 Обмануть всех Скачать торрент  

в школе я ходил в киношку на фильм " шпионы как мы".... Вот тот фильм был офигенский. До сих пор прикольный. А этот- тут юмор остался на уровне 80х... Короче- на 10й минуте примерно начал проматывать вперед, по итогу - выключил и удлалил. Полнейший УГ. Хотя уверен, что многим зайдет ))))
НА мой взгляд- за старания и из уважения к Оуэну и Эдди - 2 из 10pb.wtf



07-01-2020 20:13 Обмануть всех Скачать торрент  

*.ts серьезно?
нихера не перематывется, зря скачал, говно.pb.wtf



    Дорогой пользователь! Огромная просьба, поблагодарите релизера, оцените раздачу и оставьте свои комментарий, если Вы скачали Обмануть всех через торрент бесплатно! Внесите свою лепту в развитие PiratBit!
    Комментировать посты могут только пользователи прошедшие не сложную регистрацию
    Показать сообщения:    

    Обмануть всех через торрент
    Скачать бесплатно Обмануть всех
    Обмануть всех скачать торрент
    Обмануть всех смотреть онлайн
    Cкачать фильм Обмануть всех бесплатно
    Обмануть всех скачать торрент в хорошем качестве
    Обмануть всех смотреть онлайн бесплатно в хорошем качестве


    Вы не можете начинать темы
    Вы не можете отвечать на сообщения
    Вы не можете редактировать свои сообщения
    Вы не можете удалять свои сообщения
    Вы не можете голосовать в опросах
    Вы не можете прикреплять файлы к сообщениям
    Вы можете скачивать файлы