Anonymous, добрый вечер, присоединяйтесь к нам в Telegram!, здесь всегда актуальный адрес сайта, оперативная поддержка и многое другое!

>

5.5

iTunes

7.4

iTunes

7.9

iTunes

1

7.7

1 сезон

6.8

iTunes

7.3

1 сезон

13

6.7

1 сезон

8.3

RePack

30

ULTIMATE

pack

9.9

Лицензия

ВАЖНО

ИГРА 18+

pack

7.3

RePack

MK11

7.7

RePack

jed

7.8

RePack

fifa19

8.5

RePack

RDR2

RePack

NEED FOR SPEED™ PAYBACK

4 сезон

9 сезон

Бесстыжие 9 сезон

Все сериалы

все сериалы на PB.wtf

RePack

FAR CRY 5

Anonymous, добрый вечер, мы катастрофически не успеваем собрать деньги на оплату серверов, помогите нам пожалуйста 5,10,15р., для нас важна любая помощь . В качестве благодарности мы отключим Вам всю рекламу на сайте (укажите свой ник в строку Ваше имя)!

×
  
Magnet ссылка

Рок-н-ролл / Серии: 1-2 из 2 (Эльдар Салаватов) [2020, Мелодрама, SATRip] pb.wtf

Рок-н-ролл через торрент pb.wtf

Размер: 2.3 GB | Добавлен: 1 год 9 мес. назад | Торрент скачан:87 раз
Смотреть онлайн Рок-н-ролл | Скачать    Ребята, помогите собрать деньги на оплату серверов!!!

07-01-2020 14:21 Рок-н-ролл Скачать торрент  

Рок-н-ролл
Год выпуска: 2020
Страна: Россия
Жанр: Мелодрама
Продолжительность: ~ 01:29:00
Перевод: Не требуется
Субтитры: отсутствуют

Режиссер: Эльдар Салаватов

В ролях: Анастасия Пронина, Александр Соколовский, Евгений Пронин, Евгений Коряковский, Михаил Горевой

Описание: На престижном баттле по брейк-дансу Галина поддерживает на трибунах сына, талантливого танцовщика, претендующего на победу и отличный спонсорский контракт. Но внезапно в одном из членов жюри она узнает своего старого знакомого, и нахлынувшие воспоминания переносят ее на 25 лет назад. Тогда юная Галя болела танцами, ее жизнь была полна любви, интриг и настоящего рок-н-ролла, который, как оказалось, жив даже спустя четверть века.

Качество: SATRip
Формат: AVI

Видео: XviD, ~ 1650 Кбит/с, 720x400
Аудио: MP3, 2 ch, 192 Кбит/с
скриншот  скриншот  скриншот  скриншот  

Общее
Полное имя : C:\Rok.n.Roll.2019.XviD.SATRip.25Kuzmich\Rok.n.Roll.(01.seriya.iz.02).XviD.SATRip.25Kuzmich.avi
Формат : AVI
Формат/Информация : Audio Video Interleave
Размер файла : 1,15 Гбайт
Продолжительность : 1 ч. 28 м.
Общий поток : 1852 Кбит/сек
Программа кодирования : VirtualDubMod 1.5.10.3 (build 2550/release)
Библиотека кодирования : VirtualDubMod build 2550/release

Видео
Идентификатор : 0
Формат : MPEG-4 Visual
Профиль формата : Advanced Simple@L5
Настройки формата : BVOP1
Параметр BVOP формата : 1
Параметр QPel формата : Нет
Параметр GMC формата : Без точки перехода
Параметр матрицы формата : Default (MPEG)
Идентификатор кодека : XVID
Идентификатор кодека/Подсказка : XviD
Продолжительность : 1 ч. 28 м.
Битрейт : 1650 Кбит/сек
Ширина : 720 пикселей
Высота : 400 пикселей
Соотношение сторон : 16:9
Частота кадров : 25,000 кадров/сек
Цветовое пространство : YUV
Субдискретизация насыщенности : 4:2:0
Битовая глубина : 8 бит
Тип развёртки : Прогрессивная
Метод сжатия : С потерями
Бит/(Пиксели*Кадры) : 0.229
Размер потока : 1,02 Гбайт (89%)
Библиотека кодирования : XviD 73

Аудио
Идентификатор : 1
Формат : MPEG Audio
Версия формата : Version 1
Профиль формата : Layer 3
Настройки формата : Joint stereo / MS Stereo
Идентификатор кодека : 55
Идентификатор кодека/Подсказка : MP3
Продолжительность : 1 ч. 28 м.
Вид битрейта : Постоянный
Битрейт : 192 Кбит/сек
Каналы : 2 канала
Частота : 48,0 КГц
Частота кадров : 41,667 кадра/сек (1152 SPF)
Метод сжатия : С потерями
Размер потока : 122 Мбайт (10%)
Выравнивание : Соединение по промежуткам
Продолжительность промежутка : 40 мс. (1,00 видеокадр)
Время предзагрузки промежутка : 504 мс.
Библиотека кодирования : LAME3.99r
Настройки программы : -m j -V 4 -q 2 -lowpass 18.6 -b 192

pb.wtf



Скачать Рок-н-ролл через торрент https://i111.fastpic.ru/big/2020/0108/34/9091ebfe36e2a4eca83194aae7ec8a34.jpg Скачать, смотреть онлайн Рок-н-ролл бесплантно в хорошем качестве Описание: На престижном баттле по брейк-дансу Галина поддерживает на трибунах сына, талантливого танцовщика, претендующего на победу и ... 10 10 5
Торрент: Зарегистрирован [2020-01-07 14:21] · скачан: 87 раз
Статус: √ проверено
Размер: 2.3 GB
Как cкачать? Как скачать Рок-н-ролл через торрент | UTorrent

28-11-2019 20:33  

Отключить всю рекламу на сайте

    Дорогой пользователь! Огромная просьба, поблагодарите релизера, оцените раздачу и оставьте свои комментарий, если Вы скачали Рок-н-ролл через торрент бесплатно!
    Комментировать посты могут только пользователи прошедшие не сложную регистрацию
    Показать сообщения:    

    Рок-н-ролл через торрент
    Скачать бесплатно Рок-н-ролл
    Рок-н-ролл скачать торрент
    Рок-н-ролл смотреть онлайн
    Cкачать фильм Рок-н-ролл бесплатно
    Рок-н-ролл скачать торрент в хорошем качестве
    Рок-н-ролл смотреть онлайн бесплатно в хорошем качестве


    Вы не можете начинать темы
    Вы не можете отвечать на сообщения
    Вы не можете редактировать свои сообщения
    Вы не можете удалять свои сообщения
    Вы не можете голосовать в опросах
    Вы не можете прикреплять файлы к сообщениям
    Вы можете скачивать файлы