Ссылка на приватное зеркало всего за 1$. Внимание количество ограничено!!!

OK

1+1

iTunes

мы

OK

1

WEB-DLRip

Джокер

Пифагор

Ведьмак / The Witcher сериал

Лицензия

ПШазам

ОК

Оно 2

iTunes

30
pack

Вам бонус

ВАЖНО

!!Акция!!

Alien_RageХит недели

RePack

Resident Evil 21

ИГРА 18+

pack

RePack

jed

RePack

fifa19

RePack

Assassins Creed: Odyssey

RePack

NEED FOR SPEED™ PAYBACK

4 сезон

9 сезон

Бесстыжие 9 сезон

Все сериалы

все сериалы на PB.wtf

RePack

FAR CRY 5
  

Заместитель / Маршал / Deputy / Сезон: 1 / Серии: 1-3 из 13 (Крис Грисмер, Дэвид Эйр, Кэрол Бенкер) [2020, драма, криминал, вестерн, WEBRip 1080p] [MVO] (New Studio) pb.wtf

Заместитель через торрент pb.wtf

Размер: 5.46 GB | Добавлен: 1 д. 11 ч. назад | Торрент скачан:5 раз
Скачать  

07-01-2020 19:24 Заместитель Скачать торрент  

Заместитель | Маршал | Deputy Год выпуска: 2020
Страна: США
Жанр: драма, криминал, вестерн
Продолжительность: ~ 00:45:00
Перевод: Профессиональный (многоголосый) | New Studio
Субтитры: отсутствуют

Режиссер: Крис Грисмер, Дэвид Эйр, Кэрол Бенкер

В ролях: Стивен Дорфф, Яра Мартинес, Наталья Чильюти, Фред Падилья, Даниэль Моне Троуэр, Сэнди Лопес, Синтия Кармона, Стивен Конн, Блэр Джексон

Описание: Шериф Округа Лос-Анжелес умирает от сердечного приступа. Согласно Уставу Округа его место должен занять помощник шерифа, полицейский в пятом поколении, сержант Холлистер. Новый шериф, известный своей принципиальностью и жёсткостью, берётся за дело.

rating скриншот  

Качество: WEBRip 1080p
Формат: MKV
Видео: X264, 1920×1080 at 23.976 fps, ~5113 kbps avg
Аудио: 48 kHz, AC3, 6 ch, ~384 kbps - MVO
Аудио: 48 kHz, AC3, 6 ch, ~384 kbps - ENG
скриншот   скриншот   скриншот  

General
Unique ID : 207807330890423616274784854865004820981 (0x9C563C728646511E96AAC89055E179F5)
Complete name : E:\Заместитель (сезон 1) NewStudio_1080p\Deputy.2020.s01e01.WEBDL.1080p.NewStudio.mkv
Format : Matroska
Format version : Version 4 / Version 2
File size : 1.87 GiB
Duration : 45mn 28s
Overall bit rate : 5 884 Kbps
Encoded date : UTC 2020-01-07 18:30:07
Writing application : mkvmerge v18.0.0 ('Apricity') 64-bit
Writing library : libebml v1.3.5 + libmatroska v1.4.8

Video
ID : 1
Format : AVC
Format/Info : Advanced Video Codec
Format profile : High@L4
Format settings, CABAC : Yes
Format settings, ReFrames : 4 frames
Codec ID : V_MPEG4/ISO/AVC
Duration : 45mn 28s
Bit rate : 4 998 Kbps
Width : 1 920 pixels
Height : 1 080 pixels
Display aspect ratio : 16:9
Frame rate mode : Constant
Frame rate : 23.976 fps
Color space : YUV
Chroma subsampling : 4:2:0
Bit depth : 8 bits
Scan type : Progressive
Bits/(Pixel*Frame) : 0.101
Stream size : 1.59 GiB (85%)
Language : English
Default : Yes
Forced : No
Color range : Limited
Color primaries : BT.709
Transfer characteristics : BT.709
Matrix coefficients : BT.709

Audio #1
ID : 2
Format : AC-3
Format/Info : Audio Coding 3
Mode extension : CM (complete main)
Format settings, Endianness : Big
Codec ID : A_AC3
Duration : 45mn 28s
Bit rate mode : Constant
Bit rate : 384 Kbps
Channel(s) : 6 channels
Channel positions : Front: L C R, Side: L R, LFE
Sampling rate : 48.0 KHz
Compression mode : Lossy
Delay relative to video : -20ms
Stream size : 125 MiB (7%)
Title : NewStudio.TV
Language : Russian
Default : Yes
Forced : No

Audio #2
ID : 3
Format : AC-3
Format/Info : Audio Coding 3
Mode extension : CM (complete main)
Format settings, Endianness : Big
Codec ID : A_AC3
Duration : 45mn 28s
Bit rate mode : Constant
Bit rate : 384 Kbps
Channel(s) : 6 channels
Channel positions : Front: L C R, Side: L R, LFE
Sampling rate : 48.0 KHz
Compression mode : Lossy
Delay relative to video : -42ms
Stream size : 125 MiB (7%)
Language : English
Default : No
Forced : No

Когда раздача ведётся путём добавления новых серий, при каждом добавлении создётся новый торрент. Чтобы начать докачку новой серии, пользователям необходимо сделать следующее:
(1) остановить скачивание,
(2) удалить старый торрент у себя из клиента (старые серии удалять не надо),
(3) скачать новый торрент и запустить его у себя в клиенте вместо старого, при этом указать клиенту путь в старую папку, куда и должно происходить скачивание новых серий.
Ваш клиент при этом должен произвести хеширование (проверку) старой папки (если не производит сам - помогите ему сделать это), и будет докачивать только те серии, которых у вас ещё нет.Старые серии при этом не удаляются, а продолжают раздаваться!
Eсли вы уже удалили старые серии, то предотвратить повторную закачку старых серий можно, отжав галочку в соответсвующих местах при запуске нового торрента. По возможности, желательно не удалять старые серии как можно дольше, чтобы релизёр не столько продолжал раздавать старые серии, а смог сконцентрироваться на новых.
pb.wtf



Скачать Заместитель через торрент https://i111.fastpic.ru/big/2020/0102/0d/e69af69606f851281e5d899ae0d94e0d.jpg Скачать фильм Заместитель через торрент бесплантно в хорошем качестве Описание: Шериф Округа Лос-Анжелес умирает от сердечного приступа. Согласно Уставу Округа его место должен занять помощник шерифа, ... 7.5 10 2
Торрент: Зарегистрирован [2020-01-22 17:44] · скачан: 5 раз
Статус: √ проверено
Размер: 5.46 GB
Как cкачать? Как скачать Заместитель через торрент | qTorrent

% Раздел Тема Автор DL S | L
Зарубежные сериалы [ 4.91 GB ] Заместитель / Маршал / Deputy / Сезон: 1 / Серии: 1-3 из 13 [2020 WEBRip 720p] [MVO] killermax2013 Скачать
3 | 0
Зарубежные сериалы [ 8.97 GB ] Заместитель / Маршал / Deputy / Сезон: 1 / Серии: 1-3 из 13 [2020 WEBRip 1080p] [MVO] killermax2013 Скачать
1 | 0
Зарубежные сериалы [ 1.82 GB ] Заместитель / Маршал / Deputy / Сезон: 1 / Серии: 1-3 из 13 [2020 WEB-DLRip] MVO [NewStudio] bober100 Скачать
2 | 0
Зарубежные сериалы [ 8.6 GB ] Заместитель / Маршал / Deputy / Сезон: 1 / Серии: 1-3 из 13 [2020 WEBRip 1080p] DVO [Gears Media] bober100 Скачать
2 | 2
Зарубежные сериалы [ 3.11 GB ] Заместитель / Маршал / Deputy / Сезон: 1 / Серии: 1-3 из 13 [2020 WEBRip 720p] DVO [Gears Media] bober100 Скачать
1 | 2

28-11-2019 20:33  

Отключить всю рекламу на сайте

    Дорогой пользователь! Огромная просьба, поблагодарите релизера, оцените раздачу и оставьте свои комментарий, если Вы скачали Заместитель через торрент бесплатно! Внесите свою лепту в развитие PiratBit!
    Комментировать посты могут только пользователи прошедшие не сложную регистрацию
    Показать сообщения:    

    Заместитель через торрент
    Скачать бесплатно Заместитель
    Заместитель скачать торрент
    Заместитель смотреть онлайн
    Cкачать фильм Заместитель бесплатно
    Заместитель скачать торрент в хорошем качестве
    Заместитель смотреть онлайн бесплатно в хорошем качестве


    Вы не можете начинать темы
    Вы не можете отвечать на сообщения
    Вы не можете редактировать свои сообщения
    Вы не можете удалять свои сообщения
    Вы не можете голосовать в опросах
    Вы не можете прикреплять файлы к сообщениям
    Вы можете скачивать файлы