Ссылка на приватное зеркало всего за 1$. Внимание количество ограничено!!!

OK

1+1

iTunes

мы

OK

1

WEB-DLRip

Джокер

Пифагор

Ведьмак / The Witcher сериал

Лицензия

ПШазам

ОК

Оно 2

iTunes

30
pack

Вам бонус

ВАЖНО

!!Акция!!

Alien_RageХит недели

RePack

Resident Evil 21

ИГРА 18+

pack

RePack

jed

RePack

fifa19

RePack

Assassins Creed: Odyssey

RePack

NEED FOR SPEED™ PAYBACK

4 сезон

9 сезон

Бесстыжие 9 сезон

Все сериалы

все сериалы на PB.wtf

RePack

FAR CRY 5
  

Заместитель / Маршал / Deputy / Сезон: 1 / Серии: 1-2 из 13 (Крис Грисмер, Дэвид Эйр, Кэрол Бенкер) [2020, драма, криминал, вестерн, WEB-DL 720p] MVO [NewStudio] pb.wtf

Заместитель через торрент pb.wtf

Качают: 1 [ 0 KB/s ]
Размер: 3.27 GB | Добавлен: 9 д. назад | Торрент скачан:2 раза
Скачать  

07-01-2020 19:25 Заместитель Скачать торрент  

Заместитель | Маршал | Deputy Год выпуска: 2020
Страна: США
Жанр: драма, криминал, вестерн
Продолжительность: ~ 00:45:00
Перевод: Профессиональный (многоголосый закадровый) | NewStudio
Субтитры: Английские (SDH)

Режиссер: Крис Грисмер, Дэвид Эйр, Кэрол Бенкер

rating


В ролях: Стивен Дорфф, Яра Мартинес, Наталья Чильюти, Фред Падилья, Даниэль Моне Троуэр, Сэнди Лопес, Синтия Кармона, Стивен Конн, Блэр Джексон

Описание: Шериф Округа Лос-Анжелес умирает от сердечного приступа. Согласно Уставу Округа его место должен занять помощник шерифа, полицейский в пятом поколении, сержант Холлистер. Новый шериф, известный своей принципиальностью и жёсткостью, берётся за дело.

Качество: WEB-DL 720p
Формат: MKV

Видео: AVC, 1280x720 (16:9), ~ 3860 Kbps, 23.976 fps
Аудио 1: AC3, 48 kHz, 6 ch, 384 kbps - Rus (NewStudio)
Аудио 2: AC3, 48 kHz, 6 ch, 640 kbps - Eng
скриншот  скриншот  скриншот  скриншот  скриншот  

Общее
Уникальный идентификатор : 188841721338661637836893121193148739219 (0x8E1197B3D1C24A79915E6F5B1EB0EE93)
Полное имя : Заместитель. Сериал. 2020. EniaHD (WEB-DL 720p)\Deputy.s01e01. День выпуска.mkv
Формат : Matroska
Версия формата : Version 2
Размер файла : 1,58 Гбайт
Продолжительность : 45 м. 28 с.
Общий поток : 4987 Кбит/сек
Название фильма : Graduation Day
Дата кодирования : UTC 2020-01-12 09:20:51
Программа кодирования : mkvmerge v6.9.1 ('Blue Panther') 32bit built on Apr 18 2014 18:15:44
Библиотека кодирования : libebml v1.3.0 + libmatroska v1.4.1

Видео
Идентификатор : 1
Формат : AVC
Формат/Информация : Advanced Video Codec
Профиль формата : High@L3.1
Настройки формата : CABAC / 4 Ref Frames
Параметр CABAC формата : Да
Параметр RefFrames формата : 4 кадра
Идентификатор кодека : V_MPEG4/ISO/AVC
Продолжительность : 45 м. 28 с.
Вид битрейта : Постоянный
Битрейт : 3864 Кбит/сек
Номинальный битрейт : 6000 Кбит/сек
Ширина : 1280 пикселей
Высота : 720 пикселей
Соотношение сторон : 16:9
Режим частоты кадров : Постоянный
Частота кадров : 23,976 (24000/1001) кадра/сек
Цветовое пространство : YUV
Субдискретизация насыщенности : 4:2:0
Битовая глубина : 8 бит
Тип развёртки : Прогрессивная
Бит/(Пиксели*Кадры) : 0.175
Размер потока : 1,23 Гбайт (77%)
Язык : English
Default : Да
Forced : Нет
Цветовой диапазон : Limited
Основные цвета : BT.709
Характеристики трансфера : BT.709
Коэффициенты матрицы : BT.709

Аудио #1
Идентификатор : 2
Формат : AC-3
Формат/Информация : Audio Coding 3
Коммерческое название : Dolby Digital
Идентификатор кодека : A_AC3
Продолжительность : 45 м. 28 с.
Вид битрейта : Постоянный
Битрейт : 384 Кбит/сек
Каналы : 6 каналов
Channel layout : L R C LFE Ls Rs
Частота : 48,0 КГц
Частота кадров : 31,250 кадров/сек (1536 SPF)
Битовая глубина : 16 бит
Метод сжатия : С потерями
Размер потока : 125 Мбайт (8%)
Заголовок : NewStudio
Язык : Russian
ServiceKind/String : Complete Main
Default : Да
Forced : Нет

Аудио #2
Идентификатор : 3
Формат : AC-3
Формат/Информация : Audio Coding 3
Коммерческое название : Dolby Digital
Идентификатор кодека : A_AC3
Продолжительность : 45 м. 28 с.
Вид битрейта : Постоянный
Битрейт : 640 Кбит/сек
Каналы : 6 каналов
Channel layout : L R C LFE Ls Rs
Частота : 48,0 КГц
Частота кадров : 31,250 кадров/сек (1536 SPF)
Битовая глубина : 16 бит
Метод сжатия : С потерями
Размер потока : 208 Мбайт (13%)
Язык : English
ServiceKind/String : Complete Main
Default : Нет
Forced : Нет

Текст
Идентификатор : 4
Формат : UTF-8
Идентификатор кодека : S_TEXT/UTF8
Идентификатор кодека/Информация : UTF-8 Plain Text
Заголовок : SDH
Язык : English
Default : Нет
Forced : Нет

Когда раздача ведётся путём добавления новых серий, при каждом добавлении создётся новый торрент. Чтобы начать докачку новой серии, пользователям необходимо сделать следующее:
(1) остановить скачивание,
(2) удалить старый торрент у себя из клиента (старые серии удалять не надо),
(3) скачать новый торрент и запустить его у себя в клиенте вместо старого, при этом указать клиенту путь в старую папку, куда и должно происходить скачивание новых серий.
Ваш клиент при этом должен произвести хеширование (проверку) старой папки (если не производит сам - помогите ему сделать это), и будет докачивать только те серии, которых у вас ещё нет.Старые серии при этом не удаляются, а продолжают раздаваться!
Eсли вы уже удалили старые серии, то предотвратить повторную закачку старых серий можно, отжав галочку в соответсвующих местах при запуске нового торрента. По возможности, желательно не удалять старые серии как можно дольше, чтобы релизёр не столько продолжал раздавать старые серии, а смог сконцентрироваться на новых.
pb.wtf



Скачать Заместитель через торрент https://funkyimg.com/i/31hWs.png Скачать фильм Заместитель через торрент бесплантно в хорошем качестве Описание: Шериф Округа Лос-Анжелес умирает от сердечного приступа. Согласно Уставу Округа его место должен занять помощник шерифа, ... 10 10 3
Торрент: Зарегистрирован [2020-01-14 17:28] · скачан: 2 раз
Статус: √ проверено
Размер: 3.27 GB
Как cкачать? Как скачать Заместитель через торрент | qTorrent

28-11-2019 20:33  

Отключить всю рекламу на сайте

    Дорогой пользователь! Огромная просьба, поблагодарите релизера, оцените раздачу и оставьте свои комментарий, если Вы скачали Заместитель через торрент бесплатно! Внесите свою лепту в развитие PiratBit!
    Комментировать посты могут только пользователи прошедшие не сложную регистрацию
    Показать сообщения:    

    Заместитель через торрент
    Скачать бесплатно Заместитель
    Заместитель скачать торрент
    Заместитель смотреть онлайн
    Cкачать фильм Заместитель бесплатно
    Заместитель скачать торрент в хорошем качестве
    Заместитель смотреть онлайн бесплатно в хорошем качестве


    Вы не можете начинать темы
    Вы не можете отвечать на сообщения
    Вы не можете редактировать свои сообщения
    Вы не можете удалять свои сообщения
    Вы не можете голосовать в опросах
    Вы не можете прикреплять файлы к сообщениям
    Вы можете скачивать файлы