Ссылка на приватное зеркало всего за 1$. Внимание количество ограничено!!!

iTunes

iTunes

iTunes

1

iTunes

iTunes

iTunes

iTunes

iTunes

30
pack

Новость дня

ВАЖНО

!!Акция!!

Alien_RageХит недели

RePack

Resident Evil 21

ИГРА 18+

pack

RePack

jed

!!Акция!!

Alien_Rage

RePack

fifa19

RePack

Assassins Creed: Odyssey

RePack

NEED FOR SPEED™ PAYBACK

4 сезон

9 сезон

Бесстыжие 9 сезон

Все сериалы

все сериалы на PB.wtf

RePack

FAR CRY 5
  

Манифест / Декларация / Manifest / Сезон: 2 / Серии: 1-12 из 13 (Дэвид Фрэнкел, Феликс Акала, Нина Лопес-Коррадо) [2020, Драма, детектив, WEB-DLRip] MVO [LostFilm] pb.wtf

Манифест через торрент pb.wtf

Раздают: 3 [ 8 KB/s ]
Размер: 7.18 GB | Добавлен: 5 д. назад | Торрент скачан:8 раз
Скачать  

08-01-2020 20:25 Манифест Скачать торрент  

Манифест | Декларация | Manifest
Год выпуска: 2020
Страна: США
Студия: Shaftesbury
Жанр: Драма, детектив
Продолжительность: ~ 00:43:00
Перевод: Профессиональный (многоголосый) | LostFilm
Субтитры: отсутствуют

Режиссер: Дэвид Фрэнкел, Феликс Акала, Нина Лопес-Коррадо

rating

В ролях: Мелисса Роксбур, Джошуа Даллас, Афина Карканис, Дж.Р. Рамирес, Луна Блэйз Бойд, Джек Мессина, Парвин Каур, Тим Мориарти, Альфредо Нарцисо, Кёртисс Кук, Жюльенна Хэнзелка Ким, Дастин Николс, Мэлаки Клири, Дэна Шик, Джеральдин Лир, Шелдон Бест, Хоуп Блэксток, Джоэль де ла Фуэнте

Описание: Окутанная тайнами история произошла с пассажирами и экипажем рейса Монтего 828. Люди, находившиеся в небе несколько часов, попали будто бы во временную петлю, которая заставила их провести пять лет в полете. Однако для главных действующих лиц этот перелет казался мигом. Главные персонажи, которые находились на борту самолета, после приземления обнаруживают, что мир изменился до неузнаваемости. Первое, что они хотят узнать - что стало с их родным и близкими. На удивление многих, жизнь настолько круто перевернулась, что все те, кого они когда-то любили, уже начали новую жизнь без надежды на то, что когда-то встретят близких, полетевших злополучным рейсом.

Качество: WEB-DLRip | Без заставки и логотипа LostFilm.
Формат: AVI

Видео: XviD, 720x400 (16:9), 23.976 кадров/сек, 1600 Кбит/сек
Аудио Rus: AC3, 48,0 kHz, 2 ch, 192 Кбит/сек | LostFilm
Аудио Eng: AC3, 48,0 kHz, 2 ch, 192 Кбит/сек
скриншот  скриншот  скриншот  скриншот  

Общее
Полное имя : D:\Manifest.S02E01.WEB-DLRip.RGzsRutracker.[Wentworth_Miller].avi
Формат : AVI
Формат/Информация : Audio Video Interleave
Размер файла : 603 Мбайт
Продолжительность : 42 м. 11 с.
Общий поток : 1998 Кбит/сек
Программа кодирования : VirtualDubMod 1.5.10.3 | www.virtualdub-fr.org || (build 2550/release)
Библиотека кодирования : VirtualDubMod build 2550/release

Видео
Идентификатор : 0
Формат : MPEG-4 Visual
Профиль формата : Advanced Simple@L5
Настройки формата : BVOP1
Параметр BVOP формата : 1
Параметр QPel формата : Нет
Параметр GMC формата : Без точки перехода
Параметр матрицы формата : Default (MPEG)
Идентификатор кодека : XVID
Идентификатор кодека/Подсказка : XviD
Продолжительность : 42 м. 11 с.
Битрейт : 1600 Кбит/сек
Ширина : 720 пикселей
Высота : 400 пикселей
Соотношение сторон : 16:9
Частота кадров : 23,976 (24000/1001) кадра/сек
Цветовое пространство : YUV
Субдискретизация насыщенности : 4:2:0
Битовая глубина : 8 бит
Тип развёртки : Прогрессивная
Метод сжатия : С потерями
Бит/(Пиксели*Кадры) : 0.232
Размер потока : 483 Мбайт (80%)
Библиотека кодирования : XviD 67

Аудио #1
Идентификатор : 1
Формат : AC-3
Формат/Информация : Audio Coding 3
Коммерческое название : Dolby Digital
Идентификатор кодека : 2000
Продолжительность : 42 м. 11 с.
Вид битрейта : Постоянный
Битрейт : 192 Кбит/сек
Каналы : 2 канала
ChannelLayout : L R
Частота : 48,0 КГц
Частота кадров : 31,250 кадров/сек (1536 SPF)
Метод сжатия : С потерями
Размер потока : 57,9 Мбайт (10%)
Выравнивание : Разделение по промежуткам
Продолжительность промежутка : 42 мс. (1,00 видеокадр)
Время предзагрузки промежутка : 500 мс.
ServiceKind/String : Complete Main

Аудио #2
Идентификатор : 2
Формат : AC-3
Формат/Информация : Audio Coding 3
Коммерческое название : Dolby Digital
Идентификатор кодека : 2000
Продолжительность : 42 м. 11 с.
Вид битрейта : Постоянный
Битрейт : 192 Кбит/сек
Каналы : 2 канала
ChannelLayout : L R
Частота : 48,0 КГц
Частота кадров : 31,250 кадров/сек (1536 SPF)
Метод сжатия : С потерями
Размер потока : 57,9 Мбайт (10%)
Выравнивание : Разделение по промежуткам
Продолжительность промежутка : 42 мс. (1,00 видеокадр)
Время предзагрузки промежутка : 500 мс.
ServiceKind/String : Complete Main

Когда раздача ведётся путём добавления новых серий, при каждом добавлении создётся новый торрент. Чтобы начать докачку новой серии, пользователям необходимо сделать следующее:
(1) остановить скачивание,
(2) удалить старый торрент у себя из клиента (старые серии удалять не надо),
(3) скачать новый торрент и запустить его у себя в клиенте вместо старого, при этом указать клиенту путь в старую папку, куда и должно происходить скачивание новых серий.
Ваш клиент при этом должен произвести хеширование (проверку) старой папки (если не производит сам - помогите ему сделать это), и будет докачивать только те серии, которых у вас ещё нет. Старые серии при этом не удаляются, а продолжают раздаваться!
Eсли вы уже удалили старые серии, то предотвратить повторную закачку старых серий можно, отжав галочку в соответсвующих местах при запуске нового торрента. По возможности, желательно не удалять старые серии как можно дольше, чтобы релизёр не столько продолжал раздавать старые серии, а смог сконцентрироваться на новых.

pb.wtf



Скачать Манифест через торрент https://i2.imageban.ru/out/2020/01/08/6cb8e846475f6c1d41a56e2d5a87aebb.png Скачать фильм Манифест через торрент бесплантно в хорошем качестве Описание: Окутанная тайнами история произошла с пассажирами и экипажем рейса Монтего 828. Люди, находившиеся в небе несколько часов, попали ... 10 10 4
Торрент: Зарегистрирован [2020-04-03 07:42] · скачан: 8 раз
Статус: √ проверено
Размер: 7.18 GB
Как cкачать? Как скачать Манифест через торрент | qTorrent

% Раздел Тема Автор DL S | L
Зарубежные сериалы [ 21.48 GB ] Манифест / Декларация / Manifest / Сезон: 2 / Серии: 1-12 из 13 [2020 WEB-DL 1080p] MVO [NewStudio] bober100 Скачать
1 | 1

28-11-2019 20:33  

Отключить всю рекламу на сайте

    Дорогой пользователь! Огромная просьба, поблагодарите релизера, оцените раздачу и оставьте свои комментарий, если Вы скачали Манифест через торрент бесплатно! Внесите свою лепту в развитие PiratBit!
    Комментировать посты могут только пользователи прошедшие не сложную регистрацию
    Показать сообщения:    

    Манифест через торрент
    Скачать бесплатно Манифест
    Манифест скачать торрент
    Манифест смотреть онлайн
    Cкачать фильм Манифест бесплатно
    Манифест скачать торрент в хорошем качестве
    Манифест смотреть онлайн бесплатно в хорошем качестве


    Вы не можете начинать темы
    Вы не можете отвечать на сообщения
    Вы не можете редактировать свои сообщения
    Вы не можете удалять свои сообщения
    Вы не можете голосовать в опросах
    Вы не можете прикреплять файлы к сообщениям
    Вы можете скачивать файлы