Ссылка на приватное зеркало нашего сайта всего за 1$. Внимание количество ограничено!!!

2 сезон

iTunes

1 сезон

1

2 сезон

2 сезон

iTunes

1 сезон

RePack

30

Новинка

ВАЖНО

ИГРА 18+

pack

RePack

MK11
pack

Забери бонус

RePack

jed

!!Акция!!

Alien_Rage

RePack

fifa19

RePack

Assassins Creed: Odyssey

RePack

NEED FOR SPEED™ PAYBACK

4 сезон

9 сезон

Бесстыжие 9 сезон

Все сериалы

все сериалы на PB.wtf

RePack

FAR CRY 5
  

Цена риска / Le Prix du danger (Ив Буассе) [1983 г., фантастика, боевик, триллер, WEB-DL 720p] DUB (Советский дубляж), MVO (ОРТ) pb.wtf

Цена риска через торрент pb.wtf

Размер: 3.22 GB | Добавлен: 10 мес. назад | Торрент скачан:18 раз
Скачать  

09-01-2020 09:51 Цена риска Скачать торрент  

Цена риска / Le Prix du danger
Год выпуска: 1983

Страна: Франция, Югославия

Жанр: Фантастика, боевик, триллер

Продолжительность: 01:38:34

Перевод: Дублированный, профессиональный (многоголосый)

Режиссер: Ив Буассе

rating

В ролях: Жерар Ланвен, Мишель Пикколи, Мари-Франс Пизье, Бруно Кремер, Андреа Ферреоль, Жан Ружери, Жан-Клод Дрейфюс, Жан-Пьер Баго, Анри-Жак Юэ, Жюльен Буковски, Габриель Лазюр, Катрин Лашанс

Описание: В недалёком будущем мир развлекается жестокой телевизионной забавой, где пятеро охотников гонятся за безоружной жертвой; если беглец сумеет избежать смерти, он получит солидное денежное вознаграждение. Новая жертва ТВ, безработный Франсуа Жакмар, соглашается стать дичью, но чем дальше ему удается убежать, тем сильнее он убеждается — его бег по пересечённой местности давно и четко прорисован продюсерами шоу, и финал кровавой игры зависит, увы, не от него...
Качество: WEB-DL 720p
Формат: MKV
Видео: MPEG-4 AVC, 3974 Кбит/с, 1194x720
Аудио#1: Русский, AC-3, 2 ch, 256 Кбит/с - DUB (Советский дубляж)
Аудио#2: Русский, AC-3, 2 ch, 256 Кбит/с - MVO (ОРТ)
Аудио#3: Французский, АС3, 2 ch, 192 Кбит/с
Видео
Идентификатор : 1
Формат : AVC
Формат/Информация : Advanced Video Codec
Профиль формата : High@L3.1
Настройки формата : 2 Ref Frames
Параметр CABAC формата : Нет
Параметр RefFrames формата : 2 кадра
Идентификатор кодека : V_MPEG4/ISO/AVC
Продолжительность : 1 ч. 38 м.
Битрейт : 3974 Кбит/сек
Ширина : 1194 пикселя
Высота : 720 пикселей
Соотношение сторон : 5:3
Режим частоты кадров : Постоянный
Частота кадров : 24,000 кадра/сек
Цветовое пространство : YUV
Субдискретизация насыщенности : 4:2:0
Битовая глубина : 8 бит
Тип развёртки : Прогрессивная
Бит/(Пиксели*Кадры) : 0.193
Размер потока : 2,74 Гбайт (85%)
Default : Нет
Forced : Нет
Цветовой диапазон : Limited
Основные цвета : BT.709
Характеристики трансфера : BT.709
Коэффициенты матрицы : BT.709

Аудио #1
Идентификатор : 2
Формат : AC-3
Формат/Информация : Audio Coding 3
Коммерческое название : Dolby Digital
Идентификатор кодека : A_AC3
Продолжительность : 1 ч. 38 м.
Вид битрейта : Постоянный
Битрейт : 256 Кбит/сек
Каналы : 2 канала
ChannelLayout : L R
Частота : 48,0 КГц
Частота кадров : 31,250 кадров/сек (1536 SPF)
Битовая глубина : 16 бит
Метод сжатия : С потерями
Размер потока : 180 Мбайт (5%)
Заголовок : Дубляж
Язык : Russian
ServiceKind/String : Complete Main
Default : Да
Forced : Нет

Аудио #2
Идентификатор : 3
Формат : AC-3
Формат/Информация : Audio Coding 3
Коммерческое название : Dolby Digital
Идентификатор кодека : A_AC3
Продолжительность : 1 ч. 38 м.
Вид битрейта : Постоянный
Битрейт : 256 Кбит/сек
Каналы : 2 канала
ChannelLayout : L R
Частота : 48,0 КГц
Частота кадров : 31,250 кадров/сек (1536 SPF)
Битовая глубина : 16 бит
Метод сжатия : С потерями
Размер потока : 180 Мбайт (5%)
Заголовок : ОРТ
Язык : Russian
ServiceKind/String : Complete Main
Default : Нет
Forced : Нет

Аудио #3
Идентификатор : 4
Формат : AC-3
Формат/Информация : Audio Coding 3
Коммерческое название : Dolby Digital
Идентификатор кодека : A_AC3
Продолжительность : 1 ч. 38 м.
Вид битрейта : Постоянный
Битрейт : 192 Кбит/сек
Каналы : 2 канала
ChannelLayout : L R
Частота : 48,0 КГц
Частота кадров : 31,250 кадров/сек (1536 SPF)
Битовая глубина : 16 бит
Метод сжатия : С потерями
Размер потока : 135 Мбайт (4%)
Заголовок : Оригинал
Язык : French
ServiceKind/String : Complete Main
Default : Нет
Forced : Нет

Меню
00:00:00.000 : :Chapitre 1
00:10:36.000 : :Chapitre 2
00:20:50.000 : :Chapitre 3
00:30:46.000 : :Chapitre 4
00:38:53.000 : :Chapitre 5
00:50:13.000 : :Chapitre 6
01:00:13.000 : :Chapitre 7
01:10:29.000 : :Chapitre 8
01:20:30.000 : :Chapitre 9
01:29:35.000 : :Chapitre 10

скриншот   скриншот   скриншот   скриншот   скриншот  

pb.wtf



Скачать Цена риска через торрент http://pic1.kartinco.top/images/12/va6nz.jpg Скачать фильм Цена риска через торрент бесплантно в хорошем качестве Описание: В недалёком будущем мир развлекается жестокой телевизионной забавой, где пятеро охотников гонятся за безоружной жертвой; если ... 5 10 1
Торрент: Зарегистрирован [2020-01-09 09:51] · скачан: 18 раз
Статус: √ проверено
Размер: 3.22 GB
Как cкачать? Как скачать Цена риска через торрент | qTorrent

28-11-2019 20:33  

Отключить всю рекламу на сайте

    Дорогой пользователь! Огромная просьба, поблагодарите релизера, оцените раздачу и оставьте свои комментарий, если Вы скачали Цена риска через торрент бесплатно! Внесите свою лепту в развитие PiratBit!
    Комментировать посты могут только пользователи прошедшие не сложную регистрацию
    Показать сообщения:    

    Цена риска через торрент
    Скачать бесплатно Цена риска
    Цена риска скачать торрент
    Цена риска смотреть онлайн
    Cкачать фильм Цена риска бесплатно
    Цена риска скачать торрент в хорошем качестве
    Цена риска смотреть онлайн бесплатно в хорошем качестве


    Вы не можете начинать темы
    Вы не можете отвечать на сообщения
    Вы не можете редактировать свои сообщения
    Вы не можете удалять свои сообщения
    Вы не можете голосовать в опросах
    Вы не можете прикреплять файлы к сообщениям
    Вы можете скачивать файлы