Ссылка на приватное зеркало всего за 1$. Внимание количество ограничено!!!

iTunes

iTunes

iTunes

1

iTunes

iTunes

iTunes

WEBRip

iTunes

30
pack

$ от Little Big

ВАЖНО

!!Акция!!

Alien_RageХит недели

RePack

Resident Evil 21

ИГРА 18+

pack

RePack

jed

!!Акция!!

Alien_Rage

RePack

fifa19

RePack

Assassins Creed: Odyssey

RePack

NEED FOR SPEED™ PAYBACK

4 сезон

9 сезон

Бесстыжие 9 сезон

Все сериалы

все сериалы на PB.wtf

RePack

FAR CRY 5
  

Линия Родства / Поле / Line of Descent (Рохит Карн Батра) [2019, Драма, криминал, WEB-DL 1080p] DUB [iTunes] pb.wtf

Линия Родства через торрент pb.wtf

Раздают: 1 [ 0 KB/s ]
Размер: 4.09 GB | Добавлен: 3 мес. 21 д. назад | Торрент скачан:60 раз
Скачать  

09-01-2020 12:48 Линия Родства Скачать торрент  

Линия Родства | Поле | Line of Descent
Год выпуска: 2019
Страна: США
Выпущено: Brillstein Entertainment Partners, Level Street Pictures, Ransom Films
Жанр: Драма, криминал
Продолжительность: 01:47:44
Перевод: Дублированное | iTunes
Субтитры: Английские

Режиссер: Рохит Карн Батра

rating

В ролях: Брендан Фрейзер, Премьер-Чопра, Абхай Деол, Ронит Рой, Нирадж Каби, Али Хажи, Аниша Виктор, Шарлотта Потрель, Приянка Сети, Экавали Ханна

Описание: Действие происходит на окраине Дели и объединяет противоборствующие мафиозные семьи и тайного офицера, который борется со своими демонами и принимает участие в свержении мафии.

Качество: WEB-DL 1080p
Формат: MKV

Видео: AVC, 4659 Kb/s, 1920x804
Аудио #1 Russian: 48 kHz, AC3 Dolby Digital, 3/2 (L,C,R,l,r) + LFE ch, ~384 Kbps
Аудио #2 English: 48 kHz, AC3 Dolby Digital, 3/2 (L,C,R,l,r) + LFE ch, ~640 Kbps
скриншот  скриншот  скриншот  скриншот  

Complete name: Liniya.rodstva.2019.1080p.WEB-DL.ELEKTRI4KA.UNIONGANG.mkv
Format: Matroska
Format version: Version 4 / Version 2
File size: 4.09 GiB
Duration: 1 h 47 min
Overall bit rate: 5 429 kb/s
Movie name: .ELEKTRI4KA.UNIONGANG
Encoded date: UTC 2020-04-12 06:32:17
Writing application: mkvmerge v8.3.0 ('Over the Horizon') 64bit
Writing library: libebml v1.3.1 + libmatroska v1.4.2

Video
ID: 1
Format: AVC
Format/Info: Advanced Video Codec
Format profile: High@L4
Format settings, CABAC: Yes
Format settings, Reference frames: 5 frames
Codec ID: V_MPEG4/ISO/AVC
Duration: 1 h 47 min
Bit rate: 4 659 kb/s
Width: 1 920 pixels
Height: 804 pixels
Display aspect ratio: 2.40:1
Frame rate mode: Constant
Frame rate: 24.000 FPS
Color space: YUV
Chroma subsampling: 4:2:0
Bit depth: 8 bits
Scan type: Progressive
Bits/(Pixel*Frame): 0.126
Stream size: 3.51 GiB (86%)
Language: English
Default: Yes
Forced: No
Color range: Limited
Color primaries: BT.709
Transfer characteristics: BT.709
Matrix coefficients: BT.709

Audio #1
ID: 2
Format: AC-3
Format/Info: Audio Coding 3
Mode extension: CM (complete main)
Format settings, Endianness: Big
Codec ID: A_AC3
Duration: 1 h 47 min
Bit rate mode: Constant
Bit rate: 384 kb/s
Channel(s): 6 channels
Channel positions: Front: L C R, Side: L R, LFE
Sampling rate: 48.0 kHz
Frame rate: 31.250 FPS (1536 spf)
Bit depth: 16 bits
Compression mode: Lossy
Delay relative to video: -42 ms
Stream size: 296 MiB (7%)
Title: iTunes
Language: Russian
Default: Yes
Forced: Yes

Audio #2
ID: 3
Format: AC-3
Format/Info: Audio Coding 3
Mode extension: CM (complete main)
Format settings, Endianness: Big
Codec ID: A_AC3
Duration: 1 h 47 min
Bit rate mode: Constant
Bit rate: 384 kb/s
Channel(s): 6 channels
Channel positions: Front: L C R, Side: L R, LFE
Sampling rate: 48.0 kHz
Frame rate: 31.250 FPS (1536 spf)
Bit depth: 16 bits
Compression mode: Lossy
Delay relative to video: -42 ms
Stream size: 296 MiB (7%)
Language: English
Default: No
Forced: No

Text
ID: 4
Format: UTF-8
Codec ID: S_TEXT/UTF8
Codec ID/Info: UTF-8 Plain Text
Duration: 1 h 43 min
Bit rate: 36 b/s
Count of elements: 871
Stream size: 27.4 KiB (0%)
Language: English
Default: Yes
Forced: No

Menu
00:00:00.000: en:Chapter 1
00:10:28.628: en:Chapter 2
00:20:38.237: en:Chapter 3
00:29:59.798: en:Chapter 4
00:39:52.390: en:Chapter 5
00:49:23.960: en:Chapter 6
00:58:49.525: en:Chapter 7
01:11:03.257: en:Chapter 8
01:20:06.799: en:Chapter 9
01:30:54.445: en:Chapter 10
01:38:08.879: en:Chapter 11
01:43:44.214: en:Chapter 12

pb.wtf



Скачать Линия Родства через торрент https://b.radikal.ru/b23/2004/e1/b833f1363a0f.png Скачать фильм Линия Родства через торрент бесплантно в хорошем качестве Описание: Действие происходит на окраине Дели и объединяет противоборствующие мафиозные семьи и тайного офицера, который борется со своими ... 10 10 4
Торрент: Зарегистрирован [2020-04-12 11:11] · скачан: 60 раз
Статус: √ проверено
Размер: 4.09 GB
Как cкачать? Как скачать Линия Родства через торрент | qTorrent

% Раздел Тема Автор DL S | L
Фильмы 2019-2020 [DVDrip, WEB-DLRip, HDrip] (DUB, MVO) [ 1.41 GB ] Линия Родства / Поле / Line of Descent [2019 BDRip] - Twi7ter Скачать
30 | 2
Фильмы 2019-2020 [DVDrip, WEB-DLRip, HDrip] (DUB, MVO) [ 746 MB ] Линия Родства / Поле / Line of Descent [2019 WEB-DLRip] bober100 Скачать
1 | 0
Фильмы 2019-2020 [DVDrip, WEB-DLRip, HDrip] (DUB, MVO) [ 1.46 GB ] Линия Родства / Поле / Line of Descent [2019 WEB-DLRip] bober100 Скачать
1 | 0

28-11-2019 20:33  

Отключить всю рекламу на сайте

    Дорогой пользователь! Огромная просьба, поблагодарите релизера, оцените раздачу и оставьте свои комментарий, если Вы скачали Линия Родства через торрент бесплатно! Внесите свою лепту в развитие PiratBit!
    Комментировать посты могут только пользователи прошедшие не сложную регистрацию
    Показать сообщения:    

    Линия Родства через торрент
    Скачать бесплатно Линия Родства
    Линия Родства скачать торрент
    Линия Родства смотреть онлайн
    Cкачать фильм Линия Родства бесплатно
    Линия Родства скачать торрент в хорошем качестве
    Линия Родства смотреть онлайн бесплатно в хорошем качестве


    Вы не можете начинать темы
    Вы не можете отвечать на сообщения
    Вы не можете редактировать свои сообщения
    Вы не можете удалять свои сообщения
    Вы не можете голосовать в опросах
    Вы не можете прикреплять файлы к сообщениям
    Вы можете скачивать файлы