2 сезон

iTunes

MVO

1

2 сезон

iTunes

iTunes

1 сезон

RePack

30

Новинка

ВАЖНО

ИГРА 18+

pack

RePack

MK11
pack

Легкие деньги

RePack

jed

RePack

fifa19

RePack

RDR2

RePack

NEED FOR SPEED™ PAYBACK

4 сезон

9 сезон

Бесстыжие 9 сезон

Все сериалы

все сериалы на PB.wtf

RePack

FAR CRY 5

Anonymous, добрый день, мы не успеваем собрать деньги на оплату серверов за декабрь и январь, помогите нам пожалуйста в это трудное время. В качестве благодарности мы отключим Вам всю рекламу на сайте (укажите свой ник в строку Ваше имя)!

×
  
Magnet ссылка

Семь Миров, Одна Планета / Seven Worlds, One Planet / Серии 1-7 из 7 (Д. Аттенборо) [2019, Документальный, BDRip 1080p] [MVO] (FocusX) pb.wtf

Семь Миров, Одна Планета через торрент pb.wtf

Размер: 32.41 GB | Добавлен: 1 год назад | Торрент скачан:101 раз
Скачать  

09-01-2020 15:08 Семь Миров, Одна Планета Скачать торрент  

Семь Миров, Одна Планета / Seven Worlds, One Planet




Год выпуска: 2019
Страна: Великобритания / United Kingdom
Студия: BBC Natural History Unit, BBC Studios
Продолжительность: 7 х ~00:58:00
Перевод: Профессиональный (многоголосный, закадровый) - *FocusX* (ex FocusStudio)

Режиссер: Джонни Килинг, Скотт Александр / Jonny Keeling, Scott Alexander
Продюсер(ы): Фреди Дэвас, Эмма Наппер, Чадден Хантер, Гайлс Бэджер / Fredi Devas, Emma Napper, Chadden Hunter, Giles Badger

В ролях: Дэвид Аттенборо / David Attenborough
Жанр: Документалистика, наука, природа, фауна / Documentary, science, nature, fauna




Описание: Миллионы лет назад невероятные силы разорвали земную кору, создав наши семь континентов - каждый со своим особенным климатом, своей особой местностью и своей уникальной животной жизнью. «Семь миров» - от красочного рая Южной Америки до палящей жары Африки - демонстрирует истинный характер каждого континента в свою очередь и показывает, как он сформировал всю жизнь там. Удивляйтесь неожиданным историям. Полюбуйтесь знаковыми пейзажами. А также будьте пораженными захватывающей дикой природой. Семь Миров, Одна Планета - это открывающее глаза путешествие вокруг мира, который вы думали, что знали.
Этот документальный сериал от BBC Natural History Unit. Серия из семи частей, в которой каждый эпизод посвящен одному континенту, дебютировала 27 октября 2019 года и рассказана и представлена натуралистом сэром Дэвидом Аттенборо. Над сериалом, снятым более 1794 дней, работали более 1500 человек, с 92 съемками в 41 странах мира.

rating

Качество: BDRip 1080p
Формат: MKV

Видео: x264 AVC (High@L4.1); 1920x1080 (16:9); 25 fps; ~9300Kbps (~0.180 BPP) | все серии
Аудио 1: AC3 5.1ch; 48.0KHz; 640kbps - Русский (MVO - FocusX) | все серии
Аудио 2: DTS 5.1ch; 48.0KHz; 1536kbps - English (David Attenborough) | все серии
Субтитры 1: softsub (SRT) - Русские (Full) | все серии
Субтитры 2: softsub (SRT) - English (Full) | все серии
Субтитры 3: softsub (SRT) - English (SDH) | все серии
Главы: х6 | все серии
General
Format : Matroska
Format version : Version 4
File size : 4.63 GiB
Duration : 58mn 4s
Overall bit rate : 11.4 Mbps
Movie name : Семь Миров, Одна Планета 07 - Африка (2019) 1080p 5.1 BDRip Rus/Eng
Encoded date : UTC 2020-01-03 18:56:18
Writing application : mkvmerge v41.0.0 ('Smarra') 64-bit
Writing library : libebml v1.3.9 + libmatroska v1.5.2

Video
ID : 1
Format : AVC
Format/Info : Advanced Video Codec
Format profile : High@L4.1
Format settings : CABAC / 4 Ref Frames
Format settings, CABAC : Yes
Format settings, ReFrames : 4 frames
Codec ID : V_MPEG4/ISO/AVC
Duration : 58mn 4s
Bit rate : 9 263 Kbps
Width : 1 920 pixels
Height : 1 080 pixels
Display aspect ratio : 16:9
Frame rate mode : Constant
Frame rate : 25.000 fps
Color space : YUV
Chroma subsampling : 4:2:0
Bit depth : 8 bits
Scan type : Progressive
Bits/(Pixel*Frame) : 0.179
Stream size : 3.76 GiB (81%)
Writing library : x264 core 158 r2988 7817004
Encoding settings : cabac=1 / ref=4 / deblock=1:-3:-3 / analyse=0x3:0x113 / me=umh / subme=8 / psy=1 / psy_rd=1.00:0.00 / mixed_ref=1 / me_range=32 / chroma_me=1 / trellis=2 / 8x8dct=1 / cqm=0 / deadzone=21,11 / fast_pskip=1 / chroma_qp_offset=-2 / threads=24 / lookahead_threads=4 / sliced_threads=0 / nr=0 / decimate=1 / interlaced=0 / bluray_compat=0 / constrained_intra=0 / bframes=3 / b_pyramid=2 / b_adapt=2 / b_bias=0 / direct=3 / weightb=1 / open_gop=0 / weightp=2 / keyint=250 / keyint_min=25 / scenecut=40 / intra_refresh=0 / rc_lookahead=50 / rc=2pass / mbtree=1 / bitrate=9263 / ratetol=1.0 / qcomp=0.60 / qpmin=0 / qpmax=69 / qpstep=4 / cplxblur=20.0 / qblur=0.5 / ip_ratio=1.40 / aq=3:0.80
Language : English
Default : Yes
Forced : No

Audio #1
ID : 2
Format : AC-3
Format/Info : Audio Coding 3
Commercial name : Dolby Digital
Codec ID : A_AC3
Duration : 58mn 4s
Bit rate mode : Constant
Bit rate : 640 Kbps
Channel(s) : 6 channels
Channel layout : L R C LFE Ls Rs
Sampling rate : 48.0 KHz
Frame rate : 31.250 fps (1536 SPF)
Compression mode : Lossy
Stream size : 266 MiB (6%)
Title : MVO - FocusX
Language : Russian
Service kind : Complete Main
Default : Yes
Forced : No

Audio #2
ID : 3
Format : DTS
Format/Info : Digital Theater Systems
Codec ID : A_DTS
Duration : 58mn 3s
Bit rate mode : Constant
Bit rate : 1 509 Kbps
Channel(s) : 6 channels
Channel layout : C L R Ls Rs LFE
Sampling rate : 48.0 KHz
Frame rate : 93.750 fps (512 SPF)
Bit depth : 24 bits
Compression mode : Lossy
Stream size : 627 MiB (13%)
Title : Original
Language : English
Default : No
Forced : No

Text #1
ID : 4
Format : UTF-8
Codec ID : S_TEXT/UTF8
Codec ID/Info : UTF-8 Plain Text
Duration : 56mn 39s
Bit rate : 72 bps
Count of elements : 408
Stream size : 30.0 KiB (0%)
Title : Full
Language : Russian
Default : No
Forced : No

Text #2
ID : 5
Format : UTF-8
Codec ID : S_TEXT/UTF8
Codec ID/Info : UTF-8 Plain Text
Duration : 56mn 39s
Bit rate : 41 bps
Count of elements : 407
Stream size : 17.1 KiB (0%)
Title : Full
Language : English
Default : No
Forced : No

Text #3
ID : 6
Format : UTF-8
Codec ID : S_TEXT/UTF8
Codec ID/Info : UTF-8 Plain Text
Duration : 56mn 39s
Bit rate : 41 bps
Count of elements : 422
Stream size : 17.4 KiB (0%)
Title : SDH
Language : English
Default : No
Forced : No

Menu
00:00:00.000 : en:Chapter 01
00:07:54.160 : en:Chapter 02
00:22:30.000 : en:Chapter 03
00:33:48.160 : en:Chapter 04
00:41:47.840 : en:Chapter 05
00:49:07.680 : en:Chapter 06
скриншот   скриншот   скриншот  
pb.wtf



Скачать Семь Миров, Одна Планета через торрент https://i111.fastpic.ru/big/2019/1213/15/dc25afa7c8edda70baff5e89e8f11015.jpg Скачать фильм Семь Миров, Одна Планета через торрент бесплантно в хорошем качестве Описание: Миллионы лет назад невероятные силы разорвали земную кору, создав наши семь континентов - каждый со своим особенным климатом, ... 10 10 3
Info! Золотая раздача, скачанное не засчитывается.
Торрент: Зарегистрирован [2020-01-09 15:08] · скачан: 101 раз
Статус: √ проверено
Размер: 32.41 GB
Как cкачать? Как скачать Семь Миров, Одна Планета через торрент | UTorrent

% Раздел Тема Автор DL S | L
BBC [ 176.11 GB ] Семь миров одна планета / Seven Worlds One Planet / Сезон: 1 / Серии: 1-7 из 7 [2019 Документальный флора фауна UHD BDRemux 2160p] AVO [С. Ващенко] bober100 Скачать
1 | 0
BBC [ 93.55 GB ] Семь Миров Одна Планета / Seven Worlds One Planet / Серии 1-7 из 7 [2019 Документальный BDRemux 1080p] [MVO] killermax2013 Скачать
1 | 0

28-11-2019 20:33  

Отключить всю рекламу на сайте

    Дорогой пользователь! Огромная просьба, поблагодарите релизера, оцените раздачу и оставьте свои комментарий, если Вы скачали Семь Миров, Одна Планета через торрент бесплатно! Внесите свою лепту в развитие PiratBit!
    Комментировать посты могут только пользователи прошедшие не сложную регистрацию
    Показать сообщения:    

    Семь Миров, Одна Планета через торрент
    Скачать бесплатно Семь Миров, Одна Планета
    Семь Миров, Одна Планета скачать торрент
    Семь Миров, Одна Планета смотреть онлайн
    Cкачать фильм Семь Миров, Одна Планета бесплатно
    Семь Миров, Одна Планета скачать торрент в хорошем качестве
    Семь Миров, Одна Планета смотреть онлайн бесплатно в хорошем качестве


    Вы не можете начинать темы
    Вы не можете отвечать на сообщения
    Вы не можете редактировать свои сообщения
    Вы не можете удалять свои сообщения
    Вы не можете голосовать в опросах
    Вы не можете прикреплять файлы к сообщениям
    Вы можете скачивать файлы