Достать ножи: Стеклянная луковица

MVO

Добыча

Дубляж

Уэнсдэй

1 сезон

Тор

Дубляж

13 клиническая

1 сезон

Жестокая ночь

MVO

Одни из нас

1 сезон

Deluxe

pack

Рекомендуем

30

Пиратка

ВАЖНО

ВАЖНО

Ghostwire

Пиратка

jed

RePack

nioh2

RePack

RDR2

RePack

NEED FOR SPEED™ PAYBACK

RePack

скачать торрент

Кинопоиск HD

Острые козырьки 6 сезон

6 сезон

FAR CRY 6

RePack

скачать торрент

Лицензия

скачать торрент

MVO

1

1 сезон

скачать торрент

1 сезон

скачать торрент

Лицензия

  

Кокаиновый барон / Running with the Devil (Джейсон Кэбелл) [2019, Триллер, драма, криминал, BDRip 1080p] Дубляж [iTunes]

Кокаиновый барон через торрент pb.wtf

Размер: 11.11 GB | Добавлен: 3 года назад | Торрент скачан:241 раз
Смотреть онлайн | Скачать | Поддержите нас   

09-01-2020 18:07 Кокаиновый барон Скачать торрент  

Кокаиновый барон / Running with the Devil
Год выпуска: 2019
Страна: Колумбия, США
Студия: Jaguar Bite, Patriot Pictures
Жанр: Триллер, драма, криминал
Продолжительность: 01:40:20
Перевод: Дублированный | iTunes
Субтитры: Русские (Forced, full), английские

Режиссер: Джейсон Кэбелл

rating

В ролях: Николас Кейдж, Лоуренс Фишборн, Бэрри Пеппер, Коул Хаузер, Лесли Бибб, Питер Фачинелли, Клифтон Коллинз мл., Адам Голдберг, Наталия Рейес, Тейт Флетчер

Описание: Груз кокаина следует из Мексики через США в Канаду. Когда партия не достигает цели, лидер картеля Босс посылает своих верных помощников - Повара и Мужика - разобраться, как работает сеть поставщиков.

Качество: BDRip 1080p
Формат: MKV

Видео: MPEG-4 AVC, 1920x804, 14.9 Mbit/s, 23.976 fps
Аудио #01: 48 kHz, AC3, 5.1, 384 Kbps | iTunes | RUS |
Аудио #02: 48 kHz, AC3, 5.1, 640 Kbps | Оригинал | ENG |
скриншот  скриншот  скриншот  скриншот  скриншот  

General
Unique ID : 148296166838187547515655123485218935452 (0x6F90CD869ABDF7014DC44834B589929C)
Complete name : D:Video222Running.with.the.Devil.2019.BDRip.1080p.seleZen.mkv
Format : Matroska
Format version : Version 4
File size : 11.1 GiB
Duration : 1 h 40 min
Overall bit rate : 15.9 Mb/s
Movie name : Running with the Devil 2019 from селезень
Encoded date : UTC 2020-01-09 17:55:48
Writing application : mkvmerge v40.0.0 ('Old Town Road + Pony') 64-bit
Writing library : libebml v1.3.9 + libmatroska v1.5.2

Video
ID : 1
Format : AVC
Format/Info : Advanced Video Codec
Format profile : [email protected]
Format settings : CABAC / 5 Ref Frames
Format settings, CABAC : Yes
Format settings, Reference : 5 frames
Codec ID : V_MPEG4/ISO/AVC
Duration : 1 h 40 min
Bit rate : 14.9 Mb/s
Width : 1 920 pixels
Height : 804 pixels
Display aspect ratio : 2.40:1
Frame rate mode : Constant
Frame rate : 23.976 (24000/1001) FPS
Color space : YUV
Chroma subsampling : 4:2:0
Bit depth : 8 bits
Scan type : Progressive
Bits/(Pixel*Frame) : 0.401
Stream size : 10.4 GiB (94%)
Title : playHD
Writing library : x264 core 158 r2988+50 d99a3d6 t_mod_New [[email protected] X86_64]
Encoding settings : cabac=1 / ref=5 / deblock=1:-3:-3 / analyse=0x3:0x133 / me=umh / subme=10 / psy=1 / fade_compensate=0.00 / psy_rd=1.00:0.00 / mixed_ref=1 / me_range=32 / chroma_me=1 / trellis=2 / 8x8dct=1 / cqm=0 / deadzone=21,11 / fast_pskip=0 / chroma_qp_offset=-2 / threads=12 / lookahead_threads=2 / sliced_threads=0 / nr=0 / decimate=0 / interlaced=0 / bluray_compat=0 / constrained_intra=0 / fgo=0 / bframes=8 / b_pyramid=2 / b_adapt=2 / b_bias=0 / direct=3 / weightb=1 / open_gop=0 / weightp=2 / keyint=250 / keyint_min=23 / scenecut=40 / intra_refresh=0 / rc_lookahead=60 / rc=crf / mbtree=0 / crf=16.4000 / qcomp=0.60 / qpmin=0:0:0 / qpmax=69:69:69 / qpstep=4 / vbv_maxrate=62500 / vbv_bufsize=78125 / crf_max=0.0 / nal_hrd=none / filler=0 / ip_ratio=1.30 / pb_ratio=1.20 / aq=3:0.80 / aq-sensitivity=10.00 / aq-factor=1.00:1.00:1.00 / aq2=0 / aq3=0
Language : English
Default : Yes
Forced : No
Color range : Limited
Color primaries : BT.709
Transfer characteristics : BT.709
Matrix coefficients : BT.709

Audio #1
ID : 2
Format : AC-3
Format/Info : Audio Coding 3
Commercial name : Dolby Digital
Codec ID : A_AC3
Duration : 1 h 40 min
Bit rate mode : Constant
Bit rate : 384 kb/s
Channel(s) : 6 channels
Channel layout : L R C LFE Ls Rs
Sampling rate : 48.0 kHz
Frame rate : 31.250 FPS (1536 SPF)
Compression mode : Lossy
Stream size : 276 MiB (2%)
Title : iTunes
Language : Russian
Service kind : Complete Main
Default : Yes
Forced : Yes

Audio #2
ID : 3
Format : AC-3
Format/Info : Audio Coding 3
Commercial name : Dolby Digital
Codec ID : A_AC3
Duration : 1 h 40 min
Bit rate mode : Constant
Bit rate : 640 kb/s
Channel(s) : 6 channels
Channel layout : L R C LFE Ls Rs
Sampling rate : 48.0 kHz
Frame rate : 31.250 FPS (1536 SPF)
Compression mode : Lossy
Stream size : 459 MiB (4%)
Title : Original
Language : English
Service kind : Complete Main
Default : No
Forced : No

Text #1
ID : 4
Format : UTF-8
Codec ID : S_TEXT/UTF8
Codec ID/Info : UTF-8 Plain Text
Duration : 1 h 25 min
Bit rate : 27 b/s
Count of elements : 490
Stream size : 17.3 KiB (0%)
Title : Forced
Language : Russian
Default : Yes
Forced : Yes

Text #2
ID : 5
Format : UTF-8
Codec ID : S_TEXT/UTF8
Codec ID/Info : UTF-8 Plain Text
Duration : 1 h 31 min
Bit rate : 47 b/s
Count of elements : 866
Stream size : 32.1 KiB (0%)
Title : Full
Language : Russian
Default : No
Forced : No

Text #3
ID : 6
Format : UTF-8
Codec ID : S_TEXT/UTF8
Codec ID/Info : UTF-8 Plain Text
Duration : 1 h 31 min
Bit rate : 32 b/s
Count of elements : 896
Stream size : 21.6 KiB (0%)
Title : Full
Language : English
Default : No
Forced : No

Menu
00:00:00.000 : en:00:00:00.000
00:08:32.762 : en:00:08:32.762
00:16:05.381 : en:00:16:05.381
00:22:28.097 : en:00:22:28.097
00:28:20.866 : en:00:28:20.866
00:32:57.100 : en:00:32:57.100
00:40:05.820 : en:00:40:05.820
00:46:58.190 : en:00:46:58.190
00:52:16.467 : en:00:52:16.467
00:58:12.656 : en:00:58:12.656
01:02:24.866 : en:01:02:24.866
01:09:31.209 : en:01:09:31.209
01:16:38.302 : en:01:16:38.302
01:24:14.049 : en:01:24:14.049
01:31:12.467 : en:01:31:12.467
01:34:13.439 : en:01:34:13.439

!bober100 писал(а):


*В первой половине фильма присутствуют вставки английской речи + испанская речь по всему фильму (с английским хардсабом). Общая продолжительность, без перевода, около 3 минут. Перевод на эти (не переведенные) места присутствует в форсированных и полных русских субтитрах.



Скачать Кокаиновый барон через торрент https://img16.lostpic.net/2019/11/05/921f62f1c0bb0d496c2d3283e048c023.jpg Скачать, смотреть онлайн Кокаиновый барон бесплантно в хорошем качестве Описание: Груз кокаина следует из Мексики через США в Канаду. Когда партия не достигает цели, лидер картеля Босс посылает своих верных ... 9 10 9
Торрент: Зарегистрирован [2020-01-10 08:12] · скачан: 241 раз
Статус: √ проверено
Размер: 11.11 GB
Как cкачать? Как скачать Кокаиновый барон через торрент | UTorrent

% Раздел Тема Автор DL S | L
Фильмы 2019-2020 [DVDrip, WEB-DLRip, HDrip] (DUB, MVO) [ 1.42 GB ] Кокаиновый барон / Running with the Devil | Лицензия | BDRip Twi7ter Скачать
1 | 0
Фильмы 2019-2020 [DVDrip, WEB-DLRip, HDrip] (DUB, MVO) [ 1.46 GB ] Кокаиновый барон / Running with the Devil | iTunes | BDRip bober100 Скачать
1 | 0
Фильмы [HD 720p, 1080p] (Хороший звук DUB, MVO) [ 5.73 GB ] Кокаиновый барон / Running with the Devil | iTunes | 720p bober100 Скачать
1 | 0
Фильмы (Blu-ray, BD-Remux, HDDVD) [ 20.19 GB ] Кокаиновый барон / Running with the Devil | iTunes | BD Remux 1080p bober100 Скачать
2 | 0
Фильмы 2019-2020 [DVDrip, WEB-DLRip, HDrip] (DUB, MVO) [ 1.36 GB ] Кокаиновый барон / Running with the Devil | iTunes | DLRip-AVC, Локализованная версия Enigma2010 Скачать
3 | 0
Фильмы 2019-2020 [DVDrip, WEB-DLRip, HDrip] (DUB, MVO) [ 745 MB ] Кокаиновый барон / Running with the Devil | iTunes | DLRip-AVC Skandar2019 Скачать
2 | 0
Фильмы 2019-2020 [DVDrip, WEB-DLRip, HDrip] (DUB, MVO) [ 1.46 GB ] Кокаиновый барон / Running with the Devil | iTunes | DLRip bober100 Скачать
1 | 0

28-11-2019 20:33  


Отключить вcю реклaмy на сайте, в т.ч. и в плеере онлайн просмотра!

10-01-2020 18:25 Кокаиновый барон Скачать торрент  

Кейдж никак не угомонится, все баронит



30-01-2020 08:11 Кокаиновый барон Скачать торрент  

new_rassvet писал(а):

Кейдж никак не угомонится, все баронит

На один разок пойдет, не плохое кино. Кейдж снялся в лучшем из последних... Да и Фишборн тоже норм...



    Дорогой пользователь! Огромная просьба, поблагодарите релизера, оцените раздачу и оставьте свои комментарий, если Вы скачали Кокаиновый барон через торрент бесплатно!!
    Комментировать посты могут только пользователи прошедшие не сложную регистрацию
    Показать сообщения:    


    Кокаиновый барон через торрент
    Скачать бесплатно Кокаиновый барон
    Кокаиновый барон скачать торрент
    Кокаиновый барон смотреть онлайн
    Cкачать фильм Кокаиновый барон бесплатно
    Кокаиновый барон скачать торрент в хорошем качестве
    Кокаиновый барон смотреть онлайн бесплатно в хорошем качестве
    Вы не можете начинать темы
    Вы не можете отвечать на сообщения
    Вы не можете редактировать свои сообщения
    Вы не можете удалять свои сообщения
    Вы не можете голосовать в опросах
    Вы не можете прикреплять файлы к сообщениям
    Вы можете скачивать файлы
    Кокаиновый барон / Running with the Devil [2019, Триллер, драма, криминал, BDRip 1080p] Дубляж [iTunes] смотреть онлайн, скачать торрент picoco.icu