Ссылка на приватное зеркало нашего сайта всего за 1$. Внимание количество ограничено!!!

2 сезон

iTunes

1 сезон

1

2 сезон

2 сезон

iTunes

1 сезон

RePack

30

Новинка

ВАЖНО

ИГРА 18+

pack

RePack

MK11
pack

Забери бонус

RePack

jed

!!Акция!!

Alien_Rage

RePack

fifa19

RePack

Assassins Creed: Odyssey

RePack

NEED FOR SPEED™ PAYBACK

4 сезон

9 сезон

Бесстыжие 9 сезон

Все сериалы

все сериалы на PB.wtf

RePack

FAR CRY 5
  

Кокаиновый барон / Running with the Devil (Джейсон Кэбелл) [2019, Триллер, драма, криминал, BD Remux 1080p] DUB [iTunes] pb.wtf

Кокаиновый барон через торрент pb.wtf

Раздают: 1 [ 0 KB/s ]
Размер: 20.19 GB | Добавлен: 10 мес. назад | Торрент скачан:50 раз
Скачать  

09-01-2020 18:50 Кокаиновый барон Скачать торрент  

Кокаиновый барон / Running with the Devil
Год выпуска: 2019
Страна: Колумбия, США
Студия: Jaguar Bite, Patriot Pictures
Жанр: Триллер, драма, криминал
Продолжительность: 01:40:20
Перевод: Дублированный | iTunes
Субтитры: Русские (Forced, full), английские

Режиссер: Джейсон Кэбелл

rating

В ролях: Николас Кейдж, Лоуренс Фишборн, Бэрри Пеппер, Коул Хаузер, Лесли Бибб, Питер Фачинелли, Клифтон Коллинз мл., Адам Голдберг, Наталия Рейес, Тейт Флетчер

Описание: Груз кокаина следует из Мексики через США в Канаду. Когда партия не достигает цели, лидер картеля Босс посылает своих верных помощников - Повара и Мужика - разобраться, как работает сеть поставщиков.

Качество: BD Remux 1080p
Формат: MKV

Видео: MPEG-4 AVC, 1920x1080, 25.0 Mbit/s, 23.976 fps
Аудио #01: 48 kHz, AC3, 5.1, 384 Kbps | iTunes | RUS |
Аудио #02: 48 kHz, DTS-HD MA, 5.1, 3494 Kbps | Оригинал | ENG |
скриншот  скриншот  скриншот  скриншот  скриншот  

General
Unique ID : 73490467381505462076403904682603888702 (0x3749BFC9FAA1FCE7348088075128C03E)
Complete name : E:Video111Running.with.the.Devil.2019.BDREMUX.1080p.seleZen.mkv
Format : Matroska
Format version : Version 4
File size : 20.2 GiB
Duration : 1 h 40 min
Overall bit rate mode : Variable
Overall bit rate : 28.8 Mb/s
Movie name : Running with the Devil 2019 from селезень
Encoded date : UTC 2020-01-09 18:31:21
Writing application : mkvmerge v40.0.0 ('Old Town Road + Pony') 64-bit
Writing library : libebml v1.3.9 + libmatroska v1.5.2

Video
ID : 1
Format : AVC
Format/Info : Advanced Video Codec
Format profile : High@L4.1
Format settings : CABAC / 3 Ref Frames
Format settings, CABAC : Yes
Format settings, Reference : 3 frames
Codec ID : V_MPEG4/ISO/AVC
Duration : 1 h 40 min
Bit rate mode : Variable
Bit rate : 25.0 Mb/s
Maximum bit rate : 35.0 Mb/s
Width : 1 920 pixels
Height : 1 080 pixels
Display aspect ratio : 16:9
Frame rate mode : Constant
Frame rate : 23.976 (24000/1001) FPS
Standard : NTSC
Color space : YUV
Chroma subsampling : 4:2:0
Bit depth : 8 bits
Scan type : Progressive
Bits/(Pixel*Frame) : 0.502
Stream size : 17.5 GiB (87%)
Language : English
Default : Yes
Forced : No
Color range : Limited
Color primaries : BT.709
Transfer characteristics : BT.709
Matrix coefficients : BT.709

Audio #1
ID : 2
Format : AC-3
Format/Info : Audio Coding 3
Commercial name : Dolby Digital
Codec ID : A_AC3
Duration : 1 h 40 min
Bit rate mode : Constant
Bit rate : 384 kb/s
Channel(s) : 6 channels
Channel layout : L R C LFE Ls Rs
Sampling rate : 48.0 kHz
Frame rate : 31.250 FPS (1536 SPF)
Compression mode : Lossy
Stream size : 276 MiB (1%)
Title : iTunes
Language : Russian
Service kind : Complete Main
Default : Yes
Forced : Yes

Audio #2
ID : 3
Format : DTS XLL
Format/Info : Digital Theater Systems
Commercial name : DTS-HD Master Audio
Codec ID : A_DTS
Duration : 1 h 40 min
Bit rate mode : Variable
Bit rate : 3 494 kb/s
Channel(s) : 6 channels
Channel layout : C L R Ls Rs LFE
Sampling rate : 48.0 kHz
Frame rate : 93.750 FPS (512 SPF)
Bit depth : 24 bits
Compression mode : Lossless
Stream size : 2.44 GiB (12%)
Title : Original
Language : English
Default : No
Forced : No

Text #1
ID : 4
Format : UTF-8
Codec ID : S_TEXT/UTF8
Codec ID/Info : UTF-8 Plain Text
Duration : 1 h 25 min
Bit rate : 27 b/s
Count of elements : 490
Stream size : 17.3 KiB (0%)
Title : Forced
Language : Russian
Default : Yes
Forced : Yes

Text #2
ID : 5
Format : UTF-8
Codec ID : S_TEXT/UTF8
Codec ID/Info : UTF-8 Plain Text
Duration : 1 h 31 min
Bit rate : 47 b/s
Count of elements : 866
Stream size : 32.1 KiB (0%)
Title : Full
Language : Russian
Default : No
Forced : No

Text #3
ID : 6
Format : UTF-8
Codec ID : S_TEXT/UTF8
Codec ID/Info : UTF-8 Plain Text
Duration : 1 h 31 min
Bit rate : 32 b/s
Count of elements : 896
Stream size : 21.6 KiB (0%)
Title : Full
Language : English
Default : No
Forced : No

Menu
00:00:00.000 : :Chapter 01
00:12:23.409 : :Chapter 02
00:23:00.838 : :Chapter 03
00:33:09.821 : :Chapter 04
00:46:48.347 : :Chapter 05
01:04:16.770 : :Chapter 06
01:19:17.753 : :Chapter 07
01:35:28.556 : :Chapter 08

pb.wtf
!bober100 писал(а):

*В первой половине фильма присутствуют вставки английской речи + испанская речь по всему фильму (с английским хардсабом). Общая продолжительность, без перевода, около 3 минут. Перевод на эти (не переведенные) места присутствует в форсированных и полных русских субтитрах.



Скачать Кокаиновый барон через торрент https://img16.lostpic.net/2019/11/05/921f62f1c0bb0d496c2d3283e048c023.jpg Скачать фильм Кокаиновый барон через торрент бесплантно в хорошем качестве Описание: Груз кокаина следует из Мексики через США в Канаду. Когда партия не достигает цели, лидер картеля Босс посылает своих верных ... 10 10 6
Торрент: Зарегистрирован [2020-01-10 08:13] · скачан: 50 раз
Статус: √ проверено
Размер: 20.19 GB
Как cкачать? Как скачать Кокаиновый барон через торрент | qTorrent

% Раздел Тема Автор DL S | L
Фильмы 2019-2020 [DVDrip, WEB-DLRip, HDrip] (DUB, MVO) [ 1.42 GB ] Кокаиновый барон / Running with the Devil [2019 BDRip] - Twi7ter Скачать
3 | 0
Фильмы [HD 720p, 1080p] (Хороший звук DUB, MVO) [ 11.11 GB ] Кокаиновый барон / Running with the Devil [2019 BDRip 1080p] bober100 Скачать
1 | 0
Фильмы 2019-2020 [DVDrip, WEB-DLRip, HDrip] (DUB, MVO) [ 1.46 GB ] Кокаиновый барон / Running with the Devil [2019 BDRip] bober100 Скачать
1 | 0
Фильмы [HD 720p, 1080p] (Хороший звук DUB, MVO) [ 5.73 GB ] Кокаиновый барон / Running with the Devil [2019 BDRip 720p] bober100 Скачать
1 | 0
Фильмы 2019-2020 [DVDrip, WEB-DLRip, HDrip] (DUB, MVO) [ 1.36 GB ] Кокаиновый барон / Running with the Devil [2019 WEB-DLRip-AVC Локализованная версия] - ExKinoRay Enigma2010 Скачать
10 | 0
Фильмы 2019-2020 [DVDrip, WEB-DLRip, HDrip] (DUB, MVO) [ 745 MB ] Кокаиновый барон / Running with the Devil [2019 WEB-DLRip-AVC] [Локализованная версия] - OlLanDGroup Skandar2019 Скачать
4 | 0
Фильмы 2019-2020 [DVDrip, WEB-DLRip, HDrip] (DUB, MVO) [ 1.46 GB ] Кокаиновый барон / Running with the Devil [2019 WEB-DLRip] [Локализованная версия] bober100 Скачать
1 | 0


Последний раз редактировалось: bober100 (2020-01-10 08:13), всего редактировалось 1 раз

28-11-2019 20:33  

Отключить всю рекламу на сайте

09-01-2020 19:36 Кокаиновый барон Скачать торрент  

Давным-давно Николас Кейдж ассоциировался с хорошим кино, сейчас же ассоциируется с трешом.pb.wtf



10-01-2020 07:47 Кокаиновый барон Скачать торрент  

Так Николас давно банкрот и снимается в одном хали-гали кто платит.
Он накупил барахла, аля скелет динозавра, короче говоря прогорелpb.wtf



10-01-2020 09:06 Кокаиновый барон Скачать торрент  

Кока...Инна...и барон... pb.wtf



    Дорогой пользователь! Огромная просьба, поблагодарите релизера, оцените раздачу и оставьте свои комментарий, если Вы скачали Кокаиновый барон через торрент бесплатно! Внесите свою лепту в развитие PiratBit!
    Комментировать посты могут только пользователи прошедшие не сложную регистрацию
    Показать сообщения:    

    Кокаиновый барон через торрент
    Скачать бесплатно Кокаиновый барон
    Кокаиновый барон скачать торрент
    Кокаиновый барон смотреть онлайн
    Cкачать фильм Кокаиновый барон бесплатно
    Кокаиновый барон скачать торрент в хорошем качестве
    Кокаиновый барон смотреть онлайн бесплатно в хорошем качестве


    Вы не можете начинать темы
    Вы не можете отвечать на сообщения
    Вы не можете редактировать свои сообщения
    Вы не можете удалять свои сообщения
    Вы не можете голосовать в опросах
    Вы не можете прикреплять файлы к сообщениям
    Вы можете скачивать файлы