Ссылка на приватное зеркало всего за 1$. Внимание количество ограничено!!!

OK

1+1

iTunes

мы

OK

1

WEB-DLRip

Джокер

Пифагор

Ведьмак / The Witcher сериал

Лицензия

ПШазам

ОК

Оно 2

iTunes

30
pack

Вам бонус

ВАЖНО

!!Акция!!

Alien_RageХит недели

RePack

Resident Evil 21

ИГРА 18+

pack

RePack

jed

RePack

fifa19

RePack

Assassins Creed: Odyssey

RePack

NEED FOR SPEED™ PAYBACK

4 сезон

9 сезон

Бесстыжие 9 сезон

Все сериалы

все сериалы на PB.wtf

RePack

FAR CRY 5
  

Чёрный и синий / Black and Blue (Деон Тейлор) [2019, боевик, триллер, драма, криминал, BDRip 1080p] MVO [iTunes] pb.wtf

Чёрный и синий через торрент pb.wtf

Раздают: 9 [ 950 KB/s ]
Размер: 10.3 GB | Добавлен: 14 д. назад | Торрент скачан:144 раза
Скачать  

10-01-2020 01:11 Чёрный и синий Скачать торрент  

Чёрный и синий / Black and Blue
Год выпуска: 2019
Страна: США
Студия: Hidden Empire Film Group, Royal Viking Entertainment, Screen Gems
Жанр: боевик, триллер, драма, криминал
Продолжительность: 01:47:57
Перевод: Профессиональный (многоголосый) | iTunes
Субтитры: Русские (Full), украинские (Full), английские

Режиссер: Деон Тейлор

rating

В ролях: Майк Колтер, Фрэнк Грилло, Рейд Скотт, Наоми Харрис, Бо Напп, Тайриз Гибсон, Кеннет Кинт Брайан, Нафиса Уильямс, Майкл Пападжон, Нельсон Бонилья

Описание: Камера закрепленная на теле полицейской-новобранца из Детройта фиксирует факты коррупционных связей местной полиции и криминальных банд. И теперь, чтобы уничтожить отснятый материал, на главную героиню устраивают масштабную облаву.

Качество: BDRip 1080p
Формат: MKV

Видео: MPEG-4 AVC, 1920x804, 12.6 Mbit/s, 23.976 fps
Аудио #01: 48 kHz, AC3, 5.1, 384 Kbps | iTunes | RUS |
Аудио #02: 48 kHz, AC3, 5.1, 640 Kbps | Оригинал | ENG |
скриншот  скриншот  скриншот  скриншот  скриншот  

General
Unique ID : 51743241168922101331710120496875553490 (0x26ED62C114D4060500EEBFB8F969C2D2)
Complete name : E:Video111Black.and.Blue.2019.BDRip.1080p.seleZen.mkv
Format : Matroska
Format version : Version 4
File size : 10.3 GiB
Duration : 1 h 47 min
Overall bit rate : 13.7 Mb/s
Movie name : Black and Blue 2019 from селезень
Encoded date : UTC 2020-01-10 00:30:24
Writing application : mkvmerge v40.0.0 ('Old Town Road + Pony') 64-bit
Writing library : libebml v1.3.9 + libmatroska v1.5.2

Video
ID : 1
Format : AVC
Format/Info : Advanced Video Codec
Format profile : High@L4.1
Format settings : CABAC / 5 Ref Frames
Format settings, CABAC : Yes
Format settings, Reference : 5 frames
Codec ID : V_MPEG4/ISO/AVC
Duration : 1 h 47 min
Bit rate : 12.6 Mb/s
Width : 1 920 pixels
Height : 804 pixels
Display aspect ratio : 2.40:1
Frame rate mode : Constant
Frame rate : 23.976 (24000/1001) FPS
Color space : YUV
Chroma subsampling : 4:2:0
Bit depth : 8 bits
Scan type : Progressive
Bits/(Pixel*Frame) : 0.341
Stream size : 9.52 GiB (92%)
Writing library : x264 core 158 r2984+49 6932f4a t_mod_New [0-bit@all X86_64]
Encoding settings : cabac=1 / ref=5 / deblock=1:-3:-3 / analyse=0x3:0x133 / me=umh / subme=10 / psy=1 / fade_compensate=0.00 / psy_rd=1.00:0.00 / mixed_ref=1 / me_range=32 / chroma_me=1 / trellis=2 / 8x8dct=1 / cqm=0 / deadzone=21,11 / fast_pskip=0 / chroma_qp_offset=-2 / threads=16 / lookahead_threads=4 / sliced_threads=0 / nr=0 / decimate=0 / interlaced=0 / bluray_compat=0 / constrained_intra=0 / fgo=0 / bframes=12 / b_pyramid=2 / b_adapt=2 / b_bias=0 / direct=3 / weightb=1 / open_gop=0 / weightp=2 / keyint=480 / keyint_min=24 / scenecut=40 / intra_refresh=0 / rc_lookahead=80 / rc=crf / mbtree=0 / crf=18.0000 / qcomp=0.60 / qpmin=0:0:0 / qpmax=69:69:69 / qpstep=4 / vbv_maxrate=62500 / vbv_bufsize=78125 / crf_max=0.0 / nal_hrd=none / filler=0 / ip_ratio=1.30 / pb_ratio=1.20 / aq=3:0.80 / aq-sensitivity=10.00 / aq-factor=1.00:1.00:1.00 / aq2=0 / aq3=0
Language : English
Default : Yes
Forced : No
Color range : Limited
Color primaries : BT.709
Transfer characteristics : BT.709
Matrix coefficients : BT.709

Audio #1
ID : 2
Format : AC-3
Format/Info : Audio Coding 3
Commercial name : Dolby Digital
Codec ID : A_AC3
Duration : 1 h 47 min
Bit rate mode : Constant
Bit rate : 384 kb/s
Channel(s) : 6 channels
Channel layout : L R C LFE Ls Rs
Sampling rate : 48.0 kHz
Frame rate : 31.250 FPS (1536 SPF)
Compression mode : Lossy
Stream size : 296 MiB (3%)
Title : iTunes
Language : Russian
Service kind : Complete Main
Default : Yes
Forced : Yes

Audio #2
ID : 3
Format : AC-3
Format/Info : Audio Coding 3
Commercial name : Dolby Digital
Codec ID : A_AC3
Duration : 1 h 47 min
Bit rate mode : Constant
Bit rate : 640 kb/s
Channel(s) : 6 channels
Channel layout : L R C LFE Ls Rs
Sampling rate : 48.0 kHz
Frame rate : 31.250 FPS (1536 SPF)
Compression mode : Lossy
Stream size : 494 MiB (5%)
Title : Original
Language : English
Service kind : Complete Main
Default : No
Forced : No

Text #1
ID : 4
Format : UTF-8
Codec ID : S_TEXT/UTF8
Codec ID/Info : UTF-8 Plain Text
Duration : 1 h 47 min
Bit rate : 64 b/s
Count of elements : 1251
Stream size : 51.2 KiB (0%)
Title : Full
Language : Russian
Default : No
Forced : No

Text #2
ID : 5
Format : UTF-8
Codec ID : S_TEXT/UTF8
Codec ID/Info : UTF-8 Plain Text
Duration : 1 h 47 min
Bit rate : 67 b/s
Count of elements : 1263
Stream size : 53.3 KiB (0%)
Title : Full
Language : Ukrainian
Default : No
Forced : No

Text #3
ID : 6
Format : UTF-8
Codec ID : S_TEXT/UTF8
Codec ID/Info : UTF-8 Plain Text
Duration : 1 h 43 min
Bit rate : 51 b/s
Count of elements : 1245
Stream size : 38.6 KiB (0%)
Title : Full
Language : English
Default : No
Forced : No

Menu
00:00:00.000 : en:Chapter 1
00:05:26.284 : en:Chapter 2
00:10:36.886 : en:Chapter 3
00:16:38.581 : en:Chapter 4
00:23:32.995 : en:Chapter 5
00:30:25.532 : en:Chapter 6
00:39:08.888 : en:Chapter 7
00:47:23.674 : en:Chapter 8
00:55:04.176 : en:Chapter 9
01:01:54.544 : en:Chapter 10
01:09:42.595 : en:Chapter 11
01:17:41.782 : en:Chapter 12
01:21:47.152 : en:Chapter 13
01:24:41.368 : en:Chapter 14
01:30:23.710 : en:Chapter 15
01:40:20.973 : en:Chapter 16

pb.wtf



Скачать Чёрный и синий через торрент https://img16.lostpic.net/2019/12/30/92c58f3ae50be294cf8633ff044829db.jpg Скачать фильм Чёрный и синий через торрент бесплантно в хорошем качестве Описание: Камера закрепленная на теле полицейской-новобранца из Детройта фиксирует факты коррупционных связей местной полиции и ... 10 10 6
Info! Серебряная раздача, засчитывается только 50% скачанного.
Торрент: Зарегистрирован [2020-01-10 01:11] · скачан: 144 раз
Статус: √ проверено
Размер: 10.3 GB
Как cкачать? Как скачать Чёрный и синий через торрент | qTorrent

% Раздел Тема Автор DL S | L
Фильмы [HD 720p, 1080p] (Хороший звук DUB, MVO) [ 8.76 GB ] Чёрный и синий / Black and Blue [2019 BDRip-HEVC 1080p ] MVO bober100 Скачать
11 | 1
Фильмы 2019-2020 [DVDrip, WEB-DLRip, HDrip] (DUB, MVO) [ 1.41 GB ] Чёрный и синий / Black and Blue [2019 BDRip] MVO Twi7ter Скачать
62 | 9
Фильмы 2019-2020 [DVDrip, WEB-DLRip, HDrip] (DUB, MVO) [ 746 MB ] Чёрный и синий / Black and Blue [2019 HDRip] MVO bober100 Скачать
6 | 0
Фильмы 2019-2020 [DVDrip, WEB-DLRip, HDrip] (DUB, MVO) [ 2.17 GB ] Черное и синее / Black and Blue [2019 HDRip многоголосый закадровый ""] coc900 Скачать
4 | 0
Фильмы 2019-2020 [DVDrip, WEB-DLRip, HDrip] (DUB, MVO) [ 1.41 GB ] Чёрный и синий / Black and Blue [2019 BDRip] MVO bober100 Скачать
7 | 0
Фильмы [HD 720p, 1080p] (Хороший звук DUB, MVO) [ 4.95 GB ] Чёрный и синий / Black and Blue [2019 BDRip 720p] MVO bober100 Скачать
8 | 0
Фильмы (WEB-DL 720p, 1080p) [ 4.34 GB ] Чёрный и синий / Black and Blue [2019 WEB-DL 720p] MVO bober100 Скачать
4 | 0

28-11-2019 20:33  

Отключить всю рекламу на сайте

13-01-2020 19:08 Чёрный и синий Скачать торрент  

думаю неплохое кино.заценим))))pb.wtf



14-01-2020 17:22 Чёрный и синий Скачать торрент  

Ну как фильм?pb.wtf



    Дорогой пользователь! Огромная просьба, поблагодарите релизера, оцените раздачу и оставьте свои комментарий, если Вы скачали Чёрный и синий через торрент бесплатно! Внесите свою лепту в развитие PiratBit!
    Комментировать посты могут только пользователи прошедшие не сложную регистрацию
    Показать сообщения:    

    Чёрный и синий через торрент
    Скачать бесплатно Чёрный и синий
    Чёрный и синий скачать торрент
    Чёрный и синий смотреть онлайн
    Cкачать фильм Чёрный и синий бесплатно
    Чёрный и синий скачать торрент в хорошем качестве
    Чёрный и синий смотреть онлайн бесплатно в хорошем качестве


    Вы не можете начинать темы
    Вы не можете отвечать на сообщения
    Вы не можете редактировать свои сообщения
    Вы не можете удалять свои сообщения
    Вы не можете голосовать в опросах
    Вы не можете прикреплять файлы к сообщениям
    Вы можете скачивать файлы