Ссылка на приватное зеркало нашего сайта всего за 1$. Внимание количество ограничено!!!

2 сезон

iTunes

1 сезон

1

2 сезон

2 сезон

iTunes

1 сезон

RePack

30

Ultimate

ВАЖНО

ИГРА 18+

pack

RePack

MK11
pack

Забери бонус

RePack

jed

!!Акция!!

Alien_Rage

RePack

fifa19

RePack

Assassins Creed: Odyssey

RePack

NEED FOR SPEED™ PAYBACK

4 сезон

9 сезон

Бесстыжие 9 сезон

Все сериалы

все сериалы на PB.wtf

RePack

FAR CRY 5
  

Люби или завтра умри / Love Sick Love (Кристиан Чарльз) [2012 г., триллер, WEB-DLRip 720p] DVO pb.wtf

Люби или завтра умри через торрент pb.wtf

Размер: 2.31 GB | Добавлен: 10 мес. назад | Торрент скачан:32 раза
Скачать  

10-01-2020 09:07 Люби или завтра умри Скачать торрент  

Люби или завтра умри / Love Sick Love
Год выпуска: 2012

Страна: США

Жанр: Триллер

Продолжительность: 01:24:00

Перевод: Профессиональный (двухголосый)

Субтитры: Русские, английские

Режиссер: Кристиан Чарльз

rating

В ролях: Линдсэй Роуз Биндер, Джим Гэффиган, Дин Капика, Меган Рэй Манци, Шарлотта Рэй, Мэттью Сеттл, М. Эммет Уолш, Катя Винтер

Описание: Сказочная история любви между Дори и Норманом получает неожиданное и весьма неприятное продолжение. Заманив возлюбленного в ловушку в своём загородном доме, психопатка Дори подвергает его нелицеприятным испытаниям. Девушка торопится, ей ведь нужно за один уик-энд отпраздновать массу праздников: День Влюбленных, Пасху, Хэллоуин, Рождество и др. А помогают ей в этом её чокнутая семья: папа, мама, и детки.
Качество: WEB-DLRip 720p
Формат: MKV
Видео: MPEG-4 AVC, 3500 Кбит/с, 1280x720
Аудио#1: Русский, MP3, 2 ch, 192 Кбит/с - DVO
Аудио#2: Английский, AC-3, 6 ch, 384 Кбит/с

Video
ID : 1
Format : AVC
Format/Info : Advanced Video Codec
Format profile : Baseline@L1.3
Format settings : 2 Ref Frames
Format settings, CABAC : No
Format settings, ReFrames : 2 frames
Codec ID : V_MPEG4/ISO/AVC
Duration : 1 h 22 min
Bit rate : 3 500 kb/s
Width : 1 280 pixels
Height : 720 pixels
Display aspect ratio : 16:9
Frame rate mode : Constant
Frame rate : 23.976 FPS
Color space : YUV
Chroma subsampling : 4:2:0
Bit depth : 8 bits
Scan type : Progressive
Bits/(Pixel*Frame) : 0.158
Stream size : 1.93 GiB (84%)
Writing library : x264 core 119
Encoding settings : cabac=0 / ref=2 / deblock=1:0:0 / analyse=0x1:0x111 / me=umh / subme=6 / psy=1 / psy_rd=1.00:0.00 / mixed_ref=1 / me_range=16 / chroma_me=1 / trellis=0 / 8x8dct=0 / cqm=0 / deadzone=21,11 / fast_pskip=1 / chroma_qp_offset=-2 / threads=3 / sliced_threads=0 / nr=0 / decimate=1 / interlaced=0 / bluray_compat=0 / constrained_intra=0 / bframes=0 / weightp=0 / keyint=250 / keyint_min=23 / scenecut=40 / intra_refresh=0 / rc_lookahead=40 / rc=abr / mbtree=1 / bitrate=3500 / ratetol=1.0 / qcomp=0.60 / qpmin=0 / qpmax=69 / qpstep=4 / ip_ratio=1.40 / aq=1:1.00
Language : English
Default : Yes
Forced : No

Audio #1
ID : 2
Format : MPEG Audio
Format version : Version 1
Format profile : Layer 3
Format settings : Joint stereo
Codec ID : A_MPEG/L3
Codec ID/Hint : MP3
Duration : 1 h 22 min
Bit rate mode : Constant
Bit rate : 192 kb/s
Channel(s) : 2 channels
Sampling rate : 48.0 kHz
Compression mode : Lossy
Stream size : 114 MiB (5%)
Language : Russian
Default : Yes
Forced : No

Audio #2
ID : 3
Format : AC-3
Format/Info : Audio Coding 3
Commercial name : Dolby Digital
Codec ID : A_AC3
Duration : 1 h 22 min
Bit rate mode : Constant
Bit rate : 384 kb/s
Channel(s) : 6 channels
Channel layout : L R C LFE Ls Rs
Sampling rate : 48.0 kHz
Frame rate : 31.250 FPS (1536 SPF)
Bit depth : 16 bits
Compression mode : Lossy
Stream size : 228 MiB (10%)
Language : English
Service kind : Complete Main
Default : No
Forced : No

Text #1
ID : 4
Format : UTF-8
Codec ID : S_TEXT/UTF8
Codec ID/Info : UTF-8 Plain Text
Language : Russian
Default : No
Forced : No

Text #2
ID : 5
Format : UTF-8
Codec ID : S_TEXT/UTF8
Codec ID/Info : UTF-8 Plain Text
Language : English
Default : No
Forced : No

Menu
00:00:00.000 : en:Chapter 1
00:10:27.000 : en:Chapter 2
00:18:20.000 : en:Chapter 3
00:30:00.000 : en:Chapter 4
00:39:00.000 : en:Chapter 5
00:52:08.000 : en:Chapter 6
01:01:18.000 : en:Chapter 7
01:14:19.000 : en:Chapter 8
01:19:57.000 : en:Chapter 9

скриншот   скриншот   скриншот   скриншот  

pb.wtf



Скачать Люби или завтра умри через торрент http://pic1.kartinco.top/images/12/s8nte.jpg Скачать фильм Люби или завтра умри через торрент бесплантно в хорошем качестве Описание: Сказочная история любви между Дори и Норманом получает неожиданное и весьма неприятное продолжение. Заманив возлюбленного в ... 5 10 1
Торрент: Зарегистрирован [2020-01-10 09:07] · скачан: 32 раз
Статус: √ проверено
Размер: 2.31 GB
Как cкачать? Как скачать Люби или завтра умри через торрент | qTorrent

% Раздел Тема Автор DL S | L
Фильмы 2012 [ 1.37 GB ] Люби или завтра умри / Love Sick Love [ 2012 WEB-DLRip ] DVO Ворон Скачать
1 | 0

28-11-2019 20:33  

Отключить всю рекламу на сайте

    Дорогой пользователь! Огромная просьба, поблагодарите релизера, оцените раздачу и оставьте свои комментарий, если Вы скачали Люби или завтра умри через торрент бесплатно! Внесите свою лепту в развитие PiratBit!
    Комментировать посты могут только пользователи прошедшие не сложную регистрацию
    Показать сообщения:    

    Люби или завтра умри через торрент
    Скачать бесплатно Люби или завтра умри
    Люби или завтра умри скачать торрент
    Люби или завтра умри смотреть онлайн
    Cкачать фильм Люби или завтра умри бесплатно
    Люби или завтра умри скачать торрент в хорошем качестве
    Люби или завтра умри смотреть онлайн бесплатно в хорошем качестве


    Вы не можете начинать темы
    Вы не можете отвечать на сообщения
    Вы не можете редактировать свои сообщения
    Вы не можете удалять свои сообщения
    Вы не можете голосовать в опросах
    Вы не можете прикреплять файлы к сообщениям
    Вы можете скачивать файлы