Marvel's Avengers Deluxe Edition (супер цена) 159р. Внимание количество ограничено!!!

2 сезон

iTunes

iTunes

1

iTunes

iTunes

iTunes

WEBRip

iTunes

30
pack

Новость дня

ВАЖНО

!!Акция!!

Alien_RageХит недели

RePack

Horizon Zero Dawn

ИГРА 18+

pack

RePack

jed

!!Акция!!

Alien_Rage

RePack

fifa19

RePack

Assassins Creed: Odyssey

RePack

NEED FOR SPEED™ PAYBACK

4 сезон

9 сезон

Бесстыжие 9 сезон

Все сериалы

все сериалы на PB.wtf

RePack

FAR CRY 5
  

Скандал / Bombshell (Джей Роуч) [2019, драма, биография, BDRip 720p] DUB [iTunes] pb.wtf

Скандал через торрент pb.wtf

Раздают: 1 [ 0 KB/s ]
Размер: 4.95 GB | Добавлен: 6 мес. назад | Торрент скачан:220 раз
Скачать  

10-01-2020 09:11 Скандал Скачать торрент  

Скандал | Bombshell
Год выпуска: 2019
Страна: США, Канада
Студия: Annapurna Pictures, BRON Studios, Creative Wealth Media Finance
Жанр: драма, биография
Продолжительность: 01:48:43
Перевод: Дублированный | iTunes
Субтитры: Русские (Forced), английские

Режиссер: Джей Роуч

rating

В ролях: Шарлиз Терон, Николь Кидман, Марго Робби, Джон Литгоу, Эллисон Дженни, Малкольм МакДауэлл, Кейт МакКиннон, Конни Бриттон, Лив Хьюсон, Бригитт Ланди-Пейн

Описание: История женщин, которые разоблачили и свергли с трона своего босса - печально известного основателя самой могущественной и противоречивой медиаимперии всех времен.

Качество: BDRip 720p
Формат: MKV

Видео: MPEG-4 AVC, 1280x536, 5500 Kbit/s, 23.976 fps
Аудио #01: 48 kHz, AC3, 5.1, 384 Kbps | iTunes | RUS |
Аудио #02: 48 kHz, AC3, 5.1, 640 Kbps | Оригинал | ENG |
скриншот  скриншот  скриншот  скриншот  скриншот  

General
Unique ID : 50180803967083689568955539866225302995 (0x25C078A71337B00239C503A3F4955DD3)
Complete name : E:Video111Bombshell.2019.BDRip.720p.seleZen.mkv
Format : Matroska
Format version : Version 4
File size : 4.95 GiB
Duration : 1 h 48 min
Overall bit rate : 6 522 kb/s
Movie name : Bombshell 2019 from селезень
Encoded date : UTC 2020-03-07 19:38:25
Writing application : mkvmerge v40.0.0 ('Old Town Road + Pony') 64-bit
Writing library : libebml v1.3.9 + libmatroska v1.5.2

Video
ID : 1
Format : AVC
Format/Info : Advanced Video Codec
Format profile : High@L4.1
Format settings : CABAC / 12 Ref Frames
Format settings, CABAC : Yes
Format settings, Reference : 12 frames
Codec ID : V_MPEG4/ISO/AVC
Duration : 1 h 48 min
Bit rate : 5 500 kb/s
Width : 1 280 pixels
Height : 536 pixels
Display aspect ratio : 2.40:1
Frame rate mode : Constant
Frame rate : 23.976 (24000/1001) FPS
Color space : YUV
Chroma subsampling : 4:2:0
Bit depth : 8 bits
Scan type : Progressive
Bits/(Pixel*Frame) : 0.334
Stream size : 4.17 GiB (84%)
Title : Encoded by seleZen
Writing library : x264 core 142 r2431+42 c69a006 tMod [8-bit@all X86_64]
Encoding settings : cabac=1 / ref=12 / deblock=1:-2:-2 / analyse=0x3:0x133 / me=umh / subme=10 / psy=1 / fade_compensate=0.00 / psy_rd=1.00:0.00 / mixed_ref=1 / me_range=32 / chroma_me=1 / trellis=2 / 8x8dct=1 / cqm=0 / deadzone=21,11 / fast_pskip=0 / chroma_qp_offset=-2 / threads=24 / lookahead_threads=4 / sliced_threads=0 / nr=0 / decimate=0 / interlaced=0 / bluray_compat=0 / constrained_intra=0 / fgo=0 / bframes=8 / b_pyramid=2 / b_adapt=2 / b_bias=0 / direct=3 / weightb=1 / open_gop=0 / weightp=2 / keyint=240 / keyint_min=23 / scenecut=40 / intra_refresh=0 / rc_lookahead=50 / rc=2pass / mbtree=0 / bitrate=5500 / ratetol=1.0 / qcomp=0.60 / qpmin=0:0:0 / qpmax=51:51:51 / qpstep=4 / cplxblur=20.0 / qblur=0.5 / vbv_maxrate=50000 / vbv_bufsize=62500 / nal_hrd=none / filler=0 / ip_ratio=1.40 / pb_ratio=1.30 / aq=3:0.80 / aq-sensitivity=10.00 / aq-factor=1.00:1.00:1.00 / aq2=0 / aq3=0
Language : English
Default : Yes
Forced : No

Audio #1
ID : 2
Format : AC-3
Format/Info : Audio Coding 3
Commercial name : Dolby Digital
Codec ID : A_AC3
Duration : 1 h 48 min
Bit rate mode : Constant
Bit rate : 384 kb/s
Channel(s) : 6 channels
Channel layout : L R C LFE Ls Rs
Sampling rate : 48.0 kHz
Frame rate : 31.250 FPS (1536 SPF)
Compression mode : Lossy
Stream size : 299 MiB (6%)
Title : iTunes
Language : Russian
Service kind : Complete Main
Default : Yes
Forced : Yes

Audio #2
ID : 3
Format : AC-3
Format/Info : Audio Coding 3
Commercial name : Dolby Digital
Codec ID : A_AC3
Duration : 1 h 48 min
Bit rate mode : Constant
Bit rate : 640 kb/s
Channel(s) : 6 channels
Channel layout : L R C LFE Ls Rs
Sampling rate : 48.0 kHz
Frame rate : 31.250 FPS (1536 SPF)
Compression mode : Lossy
Stream size : 498 MiB (10%)
Title : Original
Language : English
Service kind : Complete Main
Default : No
Forced : No

Text #1
ID : 4
Format : UTF-8
Codec ID : S_TEXT/UTF8
Codec ID/Info : UTF-8 Plain Text
Duration : 1 h 44 min
Bit rate : 7 b/s
Count of elements : 106
Stream size : 5.57 KiB (0%)
Title : Forced
Language : Russian
Default : Yes
Forced : Yes

Text #2
ID : 5
Format : UTF-8
Codec ID : S_TEXT/UTF8
Codec ID/Info : UTF-8 Plain Text
Duration : 1 h 43 min
Bit rate : 85 b/s
Count of elements : 1862
Stream size : 64.8 KiB (0%)
Title : Full
Language : English
Default : No
Forced : No

Text #3
ID : 6
Format : UTF-8
Codec ID : S_TEXT/UTF8
Codec ID/Info : UTF-8 Plain Text
Duration : 1 h 43 min
Bit rate : 90 b/s
Count of elements : 1968
Stream size : 68.2 KiB (0%)
Title : SDH
Language : English
Default : No
Forced : No

Menu
00:00:00.000 : en:Глава 01
00:05:26.868 : en:Глава 02
00:11:49.500 : en:Глава 03
00:18:26.272 : en:Глава 04
00:24:45.484 : en:Глава 05
00:32:00.961 : en:Глава 06
00:35:00.515 : en:Глава 07
00:43:37.490 : en:Глава 08
00:47:00.693 : en:Глава 09
00:51:10.025 : en:Глава 10
00:59:32.986 : en:Глава 11
01:06:25.607 : en:Глава 12
01:14:31.300 : en:Глава 13
01:22:41.748 : en:Глава 14
01:32:31.504 : en:Глава 15
01:42:38.068 : en:Глава 16

pb.wtf



Скачать Скандал через торрент https://img10.lostpic.net/2020/03/07/e61ef16997c2ef81bbffb4a2e3389cc1.jpg Скачать фильм Скандал через торрент бесплантно в хорошем качестве Описание: История женщин, которые разоблачили и свергли с трона своего босса - печально известного основателя самой могущественной и ... 10 10 12
Торрент: Зарегистрирован [2020-03-07 19:48] · скачан: 220 раз
Статус: √ проверено
Размер: 4.95 GB
Как cкачать? Как скачать Скандал через торрент | qTorrent

% Раздел Тема Автор DL S | L
Фильмы 2019-2020 [DVDrip, WEB-DLRip, HDrip] (DUB, MVO) [ 2.13 GB ] Скандал / Bombshell [2019 биография BDRip] - Twi7ter Скачать
25 | 0
Фильмы 2019-2020 [DVDrip, WEB-DLRip, HDrip] (DUB, MVO) [ 1.41 GB ] Скандал / Bombshell [2019 биография BDRip] - Twi7ter Скачать
31 | 0
Фильмы [HD 720p, 1080p] (Хороший звук DUB, MVO) [ 9.37 GB ] Скандал / Bombshell [2019 биография BDRip 1080p] bober100 Скачать
4 | 0
Фильмы 2019-2020 [DVDrip, WEB-DLRip, HDrip] (DUB, MVO) [ 745 MB ] Скандал / Bombshell [2019 биография HDRip] bober100 Скачать
3 | 0
Фильмы 2019-2020 [DVDrip, WEB-DLRip, HDrip] (DUB, MVO) [ 1.41 GB ] Скандал / Bombshell [2019 биография BDRip] bober100 Скачать
1 | 0
Фильмы (Blu-ray, BD-Remux, HDDVD) [ 26.55 GB ] Скандал / Bombshell [2019 биография BD Remux 1080p] bober100 Скачать
1 | 0

28-11-2019 20:33  

Отключить всю рекламу на сайте

    Дорогой пользователь! Огромная просьба, поблагодарите релизера, оцените раздачу и оставьте свои комментарий, если Вы скачали Скандал через торрент бесплатно! Внесите свою лепту в развитие PiratBit!
    Комментировать посты могут только пользователи прошедшие не сложную регистрацию
    Показать сообщения:    

    Скандал через торрент
    Скачать бесплатно Скандал
    Скандал скачать торрент
    Скандал смотреть онлайн
    Cкачать фильм Скандал бесплатно
    Скандал скачать торрент в хорошем качестве
    Скандал смотреть онлайн бесплатно в хорошем качестве


    Вы не можете начинать темы
    Вы не можете отвечать на сообщения
    Вы не можете редактировать свои сообщения
    Вы не можете удалять свои сообщения
    Вы не можете голосовать в опросах
    Вы не можете прикреплять файлы к сообщениям
    Вы можете скачивать файлы