Ссылка на приватное зеркало всего за 1$. Внимание количество ограничено!!!

OK

1+1

iTunes

мы

OK

1

WEB-DLRip

Джокер

Пифагор

Ведьмак / The Witcher сериал

iTunes

ПШазам

ОК

Оно 2

iTunes

30
pack

Вам бонус

ВАЖНО

!!Акция!!

Alien_RageХит недели

RePack

Resident Evil 21

ИГРА 18+

pack

RePack

jed

RePack

fifa19

RePack

Assassins Creed: Odyssey

RePack

NEED FOR SPEED™ PAYBACK

4 сезон

9 сезон

Бесстыжие 9 сезон

Все сериалы

все сериалы на PB.wtf

RePack

FAR CRY 5
  

Джей и молчаливый Боб: Перезагрузка / Jay and Silent Bob Reboot (Кевин Смит) [2019, Комедия, BDRip 720p] MVO [HDrezka Studio] pb.wtf

Джей и молчаливый Боб: Перезагрузка через торрент pb.wtf

Раздают: 30 [ 908 KB/s ] Качают: 1 [ 0 KB/s ]
Размер: 3.9 GB | Добавлен: 11 д. назад | Торрент скачан:203 раза
Скачать  

10-01-2020 09:20 Джей и молчаливый Боб: Перезагрузка Скачать торрент  

Джей и молчаливый Боб: Перезагрузка | Jay and Silent Bob Reboot
Год выпуска: 2019
Страна: США
Студия: Destro Films, SModcast Pictures, Hideout Pictures, Miramax Films, Intercut Capital
Жанр: Комедия
Продолжительность: 01:45:19
Перевод: Профессиональный (многоголосый) | HDrezka Studio
Субтитры: Русские, Английские

Режиссер: Кевин Смит

rating


В ролях: Джейсон Мьюз, Кевин Смит, Мэтт Дэймон, Крис Хемсворт, Бен Аффлек, Мелисса Бенойст, Вэл Килмер, Розарио Доусон, Джо Манганьелло, Джеймс Ван Дер Бик

Описание: Неугомонные приятели Джей и молчаливый Боб отправляются в Голливуд, когда узнают, что студия готовит новую экранизацию комикса о Пыхаре и Хронике, прототипами которых стали они сами.

Качество: BDRip 720p
Формат: MKV

Видео: AVC/H.264, 1280x540, ~4751 Кbps, 23.976 fps
Аудио: AC3, 6 ch, 448 Kbps - Русский
скриншот  скриншот  скриншот  скриншот  

Общее
Уникальный идентификатор : 327821373346027698678669214477121259447 (0xF6A0199541B5F8B012FDEE86917487B7)
Полное имя : D:\Jay.and.Silent.Bob.Reboot.2019.BDRip.720p.mkv
Формат : Matroska
Версия формата : Version 4 / Version 2
Размер файла : 3,90 Гбайт
Продолжительность : 1 ч. 45 м.
Режим общего битрейта : Переменный
Общий поток : 5304 Кбит/сек
Название фильма : BLACKTIR - 4MO
Программа кодирования : XviD4PSP 8.0.93
Библиотека кодирования : Lavf58.29.100 / Lavf58.29.100
ErrorDetectionType : Per level 1
Attachments : poster
CRC_Error_Pos : 598
ENCODING_INFO : JPEG > COPY Быстрое
Язык : und

Видео
Идентификатор : 1
Формат : AVC
Формат/Информация : Advanced Video Codec
Профиль формата : High@L4.1
Параметр CABAC формата : Да
Параметр RefFrames формата : 1 кадр
Идентификатор кодека : V_MPEG4/ISO/AVC
Продолжительность : 1 ч. 45 м.
Вид битрейта : Переменный
Битрейт : 4751 Кбит/сек
Максимальный битрейт : 2000 Кбит/сек
Ширина : 1280 пикселей
Высота : 540 пикселей
Соотношение сторон : 2,40:1
Режим частоты кадров : Постоянный
Частота кадров : 23,976 (24000/1001) кадра/сек
Цветовое пространство : YUV
Субдискретизация насыщенности : 4:2:0
Битовая глубина : 8 бит
Тип развёртки : Прогрессивная
Бит/(Пиксели*Кадры) : 0.287
Размер потока : 3,49 Гбайт (90%)
Default : Да
Forced : Нет
ENCODING_INFO : H264 > COPY Безопасное

Аудио
Идентификатор : 2
Формат : AC-3
Формат/Информация : Audio Coding 3
Расширение режима : CM (complete main)
Параметр Endianness формата : Big
Идентификатор кодека : A_AC3
Продолжительность : 1 ч. 45 м.
Вид битрейта : Постоянный
Битрейт : 448 Кбит/сек
Каналы : 6 каналов
Расположение каналов : Front: L C R, Side: L R, LFE
Частота : 48,0 КГц
Частота кадров : 31,250 кадров/сек (1536 spf)
Битовая глубина : 32 бит
Метод сжатия : С потерями
Размер потока : 337 Мбайт (8%)
Язык : Russian
Default : Да
Forced : Нет
ENCODING_INFO : AC3 > COPY Безопасное

pb.wtf



Скачать Джей и молчаливый Боб: Перезагрузка через торрент http://c.radikal.ru/c34/2001/28/7cc9e7bb9991.jpg Скачать фильм Джей и молчаливый Боб: Перезагрузка через торрент бесплантно в хорошем качестве Описание: Неугомонные приятели Джей и молчаливый Боб отправляются в Голливуд, когда узнают, что готовит новую экранизацию комикса о ... 9.2 10 11
Info! Золотая раздача, скачанное не засчитывается.
Торрент: Зарегистрирован [2020-01-17 00:38] · скачан: 203 раз
Статус: # сомнительно
Размер: 3.9 GB
Как cкачать? Как скачать Джей и молчаливый Боб: Перезагрузка через торрент | qTorrent

% Раздел Тема Автор DL S | L
Фильмы 2019-2020 [DVDrip, WEB-DLRip, HDrip] (DUB, MVO) [ 1.46 GB ] Джей и молчаливый Боб: Перезагрузка / Jay and Silent Bob Reboot [2019 BDRip] MVO [HDrezka Studio] bober100 Скачать
65 | 4
Фильмы [HD 720p, 1080p] (Хороший звук DUB, MVO) [ 10.33 GB ] Джей и молчаливый Боб: Перезагрузка / Jay and Silent Bob Reboot [2019 BDRip 1080p] MVO [HDrezka Studio] bober100 Скачать
23 | 0


Последний раз редактировалось: bober100 (2020-01-17 00:38), всего редактировалось 1 раз

28-11-2019 20:33  

Отключить всю рекламу на сайте

    Дорогой пользователь! Огромная просьба, поблагодарите релизера, оцените раздачу и оставьте свои комментарий, если Вы скачали Джей и молчаливый Боб: Перезагрузка через торрент бесплатно! Внесите свою лепту в развитие PiratBit!
    Комментировать посты могут только пользователи прошедшие не сложную регистрацию
    Показать сообщения:    

    Джей и молчаливый Боб: Перезагрузка через торрент
    Скачать бесплатно Джей и молчаливый Боб: Перезагрузка
    Джей и молчаливый Боб: Перезагрузка скачать торрент
    Джей и молчаливый Боб: Перезагрузка смотреть онлайн
    Cкачать фильм Джей и молчаливый Боб: Перезагрузка бесплатно
    Джей и молчаливый Боб: Перезагрузка скачать торрент в хорошем качестве
    Джей и молчаливый Боб: Перезагрузка смотреть онлайн бесплатно в хорошем качестве


    Вы не можете начинать темы
    Вы не можете отвечать на сообщения
    Вы не можете редактировать свои сообщения
    Вы не можете удалять свои сообщения
    Вы не можете голосовать в опросах
    Вы не можете прикреплять файлы к сообщениям
    Вы можете скачивать файлы